Хостел 3 / Hostel: Part III (Скотт Спигел / Scott Spiegel) [2011, США, ужасы, триллер, детектив, DVDRip] VO

Reply to topic
 
Author
Message

Oton ®

Gender: Unknown

Longevity: 9 years 2 months

Posts: 70

Reputation: 5 [+] [-]

Oton · Post 21-Dec-2011 03:39

[Quote] 

Хостел 3 / Hostel: Part III
Страна: США
Жанр: ужасы, триллер, детектив
Год выпуска: 2011
Продолжительность: 1:27:44
Перевод: одноголосый закадровый (magnumst)
Cубтитры: нет
Режиссер: Скотт Спигел / Scott Spiegel
В ролях:
Томас Кречманн, Кип Парду, Джон Хенсли, Сара Хабель, Бэрри Ливингстон, Брайан Хэллисей, Келли Тибо, Скайлер Стоун, Дэнни Джейкобс
Описание: На этот раз события развернутся не в кровожадных притонах Словакии, а в Лас-Вегасе, где одна холостяцкая вечеринка пошла не совсем по плану — нас ожидает очередная кровавая бойня.
Сэмпл: http://multi-up.com/615474
Качество видео: DVDRip исходник неизвестен
Формат видео: AVI
Видео: 720x400 (1.80:1), 23.976 fps, XviD build 50 ~1777 kbps avg, 0.26 bit/pixel
Аудио: 48 kHz, AC3 Dolby Digital, 3/2 (L,C,R,l,r) + LFE ch, ~448 kbps

MediaInfo

General
Complete name : E:\7\Xoctel.3.2011.XviD.DVDRip.avi
Format : AVI
Format/Info : Audio Video Interleave
File size : 1.37 GiB
Duration : 1h 27mn
Overall bit rate : 2 235 Kbps
Writing application : Lavf52.39.1
Writing library : VirtualDub build 32842/release
Video
ID : 0
Format : MPEG-4 Visual
Format profile : Advanced Simple@L5
Format settings, BVOP : 1
Format settings, QPel : No
Format settings, GMC : No warppoints
Format settings, Matrix : Default (H.263)
Codec ID : XVID
Codec ID/Hint : XviD
Duration : 1h 27mn
Bit rate : 1 778 Kbps
Width : 720 pixels
Height : 400 pixels
Display aspect ratio : 16:9
Frame rate : 23.976 fps
Color space : YUV
Chroma subsampling : 4:2:0
Bit depth : 8 bits
Scan type : Progressive
Compression mode : Lossy
Bits/(Pixel*Frame) : 0.257
Stream size : 1.09 GiB (80%)
Writing library : XviD 1.2.1 (UTC 2008-12-04)
Audio
ID : 1
Format : AC-3
Format/Info : Audio Coding 3
Mode extension : CM (complete main)
Codec ID : 2000
Duration : 1h 27mn
Bit rate mode : Constant
Bit rate : 448 Kbps
Channel(s) : 6 channels
Channel positions : Front: L C R, Side: L R, LFE
Sampling rate : 48.0 KHz
Bit depth : 16 bits
Compression mode : Lossy
Stream size : 281 MiB (20%)
Alignment : Aligned on interleaves
Interleave, duration : 42 ms (1.00 video frame)
Interleave, preload duration : 512 ms

Скриншот c названием фильма

Скриншоты

[Profile]  [PM] 
Display posts:    
Reply to topic

Current time is: 27-Nov 02:24

All times are UTC + 2



You cannot post new topics in this forum
You cannot reply to topics in this forum
You cannot edit your posts in this forum
You cannot delete your posts in this forum
You cannot vote in polls in this forum
You cannot attach files in this forum
You cannot download files in this forum