Поля / Texas Killing Fields (Эми Канаан Манн / Ami Canaan Mann) [2011, США, Триллер, драма, криминал, история, BDRip] Dub [лицензия]

Reply to topic
 
Author
Message

Harald ®

Gender: Unknown

Longevity: 8 years 11 months

Posts: 11

Reputation: 10 [+] [-]

Harald · Post 09-Jan-2012 01:30

[Quote] 

Поля / Texas Killing Fields
Страна: США
Жанр: Триллер, драма, криминал, история
Год выпуска: 2011
Продолжительность: 01:44:42
Перевод: Профессиональный (дублированный)
Cубтитры: нет
Режиссер: Эми Канаан Манн / Ami Canaan Mann
В ролях: Сэм Уортингтон, Джеффри Дин Морган, Хлоя Грейс Морец, Джессика Честейн, Стивен Грэм, Кори Беркмейер, Трентон Перез, Морин Бреннан, Тони Бентли, Бекки Флю
Описание: В центре сюжета — два детектива: один местный техасец Майк Саудер, второй — переехавший из Нью-Йорка Брайан Хай. Герои в паре расследуют загадочные убийства жертв, найденных на Полях Смерти. Сложность в том, что места преступления как такового нет: всех жертв преступники привозят из других мест и просто сваливают в Техасе — отсюда и название Поля Смерти для этой области.
Внезапно из следователей детективы сами превращаются в жертв: преступники начинают играть с ними в кошки-мышки, подсовывая улики и донимая звонками с телефонов убитых. Когда они похищают местную девочку Энн, Саудер и Хай идут на все, чтобы найти ее..


СЭМПЛ
Качество видео: BDRip (Texas Killing Fields 2011 BluRay 1080p AVC DTS-HD MA5.1-CHDBits)
Формат видео: AVI
Видео: 720x304 (2.37:1), 24.000 fps, XviD build 63 ~1584 kbps avg, 0.30 bit/pixel
Аудио: 48 kHz, AC3 Dolby Digital, 3/2 (L,C,R,l,r) + LFE ch, ~384 kbps

MediaInfo

General
Complete name : E:\Downloads\Polia.chopper887.avi
Format : AVI
Format/Info : Audio Video Interleave
File size : 1.45 GiB
Duration : 1h 44mn
Overall bit rate : 1 978 Kbps
Movie name : Polia.chopper887
Director : chopper887
Genre : Detective
Writing application : VirtualDubMod 1.5.10.3 | www.virtualdub-fr.org || (build 2550/release)
Original source form/Name : Movie
Video
ID : 0
Format : MPEG-4 Visual
Format profile : Advanced Simple@L5
Format settings, BVOP : 1
Format settings, QPel : No
Format settings, GMC : No warppoints
Format settings, Matrix : Custom
Codec ID : XVID
Codec ID/Hint : XviD
Duration : 1h 44mn
Bit rate : 1 584 Kbps
Width : 720 pixels
Height : 304 pixels
Display aspect ratio : 2.35:1
Frame rate : 24.000 fps
Color space : YUV
Chroma subsampling : 4:2:0
Bit depth : 8 bits
Scan type : Progressive
Compression mode : Lossy
Bits/(Pixel*Frame) : 0.302
Stream size : 1.16 GiB (80%)
Writing library : XviD 63
Audio
ID : 1
Format : AC-3
Format/Info : Audio Coding 3
Mode extension : CM (complete main)
Codec ID : 2000
Duration : 1h 44mn
Bit rate mode : Constant
Bit rate : 384 Kbps
Channel(s) : 6 channels
Channel positions : Front: L C R, Side: L R, LFE
Sampling rate : 48.0 KHz
Bit depth : 16 bits
Compression mode : Lossy
Stream size : 288 MiB (19%)
Alignment : Split accross interleaves
Interleave, duration : 42 ms (1.00 video frame)
Interleave, preload duration : 500 ms

Скриншоты

[Profile]  [PM] 
Display posts:    
Reply to topic

Current time is: 27-Nov 02:27

All times are UTC + 2



You cannot post new topics in this forum
You cannot reply to topics in this forum
You cannot edit your posts in this forum
You cannot delete your posts in this forum
You cannot vote in polls in this forum
You cannot attach files in this forum
You cannot download files in this forum