Остров сокровищ / Treasure Island (Стив Баррон / Steve Barron) [2012 г.,приключения, HDTVRip] (DVO) (Alternative Production)

Reply to topic
 
Author
Message

Troll ®

Gender: Unknown

Longevity: 8 years 10 months

Posts: 74

Reputation: 0 [+] [-]

Troll · Post 09-Jan-2012 01:56

[Quote] 

Остров сокровищ / Treasure Island
Год выпуска: 2012
Страна: Великобритания, Ирландия
Жанр: приключения
Продолжительность: 01:28:01 + 01:31:39
Перевод: Любительский двухголосый закадровый (Alternative Production)
Субтитры: рус, англ
Режиссер: Стив Баррон / Steve Barron
-В ролях:
Эдди Изард, Элайджа Вуд, Филип Гленистер, Руперт Пенри-Джонс
Описание:
Эта новая адаптация любимого классического романа Р.Стивенсона применяет свежий и смелый подход, чтобы создать захватывающую, остросюжетную картину. Двухсерийная драма повествует о Джиме Хокинсе, который неожиданно вливается в мир пиратства, когда обнаруживает карту сокровищ капитана Флинта. Но Долговязый Джон Сильвер не остановится ни перед чем, чтобы прибрать всё золото к своим рукам...
-Качество: HDTVRip (1080 источник)
Формат: AVI
Видео кодек: XviD
Аудио кодек: AC3
Видео: 720x400 (1.80:1), 25 fps, XviD build 50 ~1594 kbps avg, 0.22 bit/pixel
Audio Rus: 48 kHz, AC3 Dolby Digital, 3/2 (L,C,R,l,r) + LFE ch, ~384.00 kbps avg
Audio Eng: 48 kHz, AC3 Dolby Digital, 3/2 (L,C,R,l,r) + LFE ch, ~384.00 kbps avg
-Озвучка: Alternative Production- -

MI

General
Complete name : D:\Сериалы\Treasure Island\Treasure.Island.Part1.rus.eng.avi
Format : AVI
Format/Info : Audio Video Interleave
File size : 1.46 GiB
Duration : 1h 28mn
Overall bit rate : 2 378 Kbps
Writing application : VirtualDubMod 1.5.10.2 (build 2540/release)
Writing library : VirtualDubMod build 2540/release

Video
ID : 0
Format : MPEG-4 Visual
Format profile : Advanced Simple@L5
Format settings, BVOP : 1
Format settings, QPel : No
Format settings, GMC : No warppoints
Format settings, Matrix : Default (MPEG)
Codec ID : XVID
Codec ID/Hint : XviD
Duration : 1h 28mn
Bit rate : 1 595 Kbps
Width : 720 pixels
Height : 400 pixels
Display aspect ratio : 16:9
Frame rate : 25.000 fps
Color space : YUV
Chroma subsampling : 4:2:0
Bit depth : 8 bits
Scan type : Progressive
Compression mode : Lossy
Bits/(Pixel*Frame) : 0.222
Stream size : 1 004 MiB (67%)
Writing library : XviD 1.2.1 (UTC 2008-12-04)

Audio #1
ID : 1
Format : AC-3
Format/Info : Audio Coding 3
Mode extension : CM (complete main)
Codec ID : 2000
Duration : 1h 28mn
Bit rate mode : Constant
Bit rate : 384 Kbps
Channel(s) : 6 channels
Channel positions : Front: L C R, Side: L R, LFE
Sampling rate : 48.0 KHz
Bit depth : 16 bits
Compression mode : Lossy
Stream size : 242 MiB (16%)
Alignment : Split accross interleaves
Interleave, duration : 40 ms (1.00 video frame)
Interleave, preload duration : 500 ms

Audio #2
ID : 2
Format : AC-3
Format/Info : Audio Coding 3
Mode extension : CM (complete main)
Codec ID : 2000
Duration : 1h 28mn
Bit rate mode : Constant
Bit rate : 384 Kbps
Channel(s) : 6 channels
Channel positions : Front: L C R, Side: L R, LFE
Sampling rate : 48.0 KHz
Bit depth : 16 bits
Compression mode : Lossy
Stream size : 242 MiB (16%)
Alignment : Split accross interleaves
Interleave, duration : 40 ms (1.00 video frame)
Interleave, preload duration : 500 ms

Скриншоты

[Profile]  [PM] 
Display posts:    
Reply to topic

Current time is: 03-Dec 09:11

All times are UTC + 2



You cannot post new topics in this forum
You cannot reply to topics in this forum
You cannot edit your posts in this forum
You cannot delete your posts in this forum
You cannot vote in polls in this forum
You cannot attach files in this forum
You cannot download files in this forum