Без истерики! / Hysteria (Таня Уэкслер / Tanya Wexle) [2011, Германия, Франция, Великобритания, Люксембург, Мелодрама, Комедия, BDRip] Dub

Reply to topic
 
Author
Message

Satyr ®

Gender: Unknown

Longevity: 11 years

Posts: 15401

Reputation: 55 [+] [-]

Satyr · Post 21-Jan-2012 19:16

[Quote] 

Без истерики! / Hysteria Страна: Германия , Франция , Великобритания , Люксембург
Жанр: Мелодрама, Комедия
Год выпуска: 2011
Продолжительность: 01:39:06
Перевод: Профессиональный (дублированный)
Cубтитры: нет
Режиссер: Таня Уэкслер / Tanya Wexle
В ролях: Фелисити Джонс, Мэгги Джилленхол, Хью Дэнси, Руперт Эверетт, Джонатан Прайс, Джемма Джонс, Анна Чэнселлор, Тобиаш Мензес, Шеридан Смит, Кейт Линдер...
Описание: Викторианская Англия, 1880 год. Выпускник медицинской школы Мортимер Грэнвиль устраивается на работу в кабинет доктора Далримпла, который славится на весь Лондон уникальным методом лечения «истерии» — женского перевозбуждения — с помощью интимного массажа. Популярность «ручного» метода Далримпла растет с астрономической скоростью, и справляться с наплывом страждущих пациенток становится все сложнее.
С помощью своего друга Эдмунда молодой и прогрессивный врач находит изящное решение проблемы: приятели изобретают элегантный электрический приборчик, который вполне может заменить золотые руки мистера Далрима. Известие о чудо-изобретении мгновенно распространяется среди лондонских дам…
Тем временем Мортимер влюбляется в Шарлотту, самую красивую, свободолюбивую и яркую дочь своего работодателя.


СЭМПЛ
Качество видео: BDRip (Hysteria [2011] - [1080p] Blu-ray)
Формат видео: AVI
Видео: 720x304 (2.37:1), 24.000 fps, XviD build 63 ~1630 kbps avg, 0.31 bit/pixel
Аудио: 48 kHz, AC3 Dolby Digital, 3/2 (L,C,R,l,r) + LFE ch, ~448 kbps

MediaInfo

General
Complete name : E:\Downloads\Bez isteriki.chopper887.avi
Format : AVI
Format/Info : Audio Video Interleave
File size : 1.45 GiB
Duration : 1h 39mn
Overall bit rate : 2 088 Kbps
Movie name : Bez isteriki.chopper887
Director : chopper887
Genre : Comedy
Writing application : VirtualDubMod 1.5.10.3 | www.virtualdub-fr.org || (build 2550/release)
Original source form/Name : Movie
Video
ID : 0
Format : MPEG-4 Visual
Format profile : Advanced Simple@L5
Format settings, BVOP : 2
Format settings, QPel : No
Format settings, GMC : No warppoints
Format settings, Matrix : Custom
Codec ID : XVID
Codec ID/Hint : XviD
Duration : 1h 39mn
Bit rate : 1 630 Kbps
Width : 720 pixels
Height : 304 pixels
Display aspect ratio : 2.35:1
Frame rate : 24.000 fps
Color space : YUV
Chroma subsampling : 4:2:0
Bit depth : 8 bits
Scan type : Progressive
Compression mode : Lossy
Bits/(Pixel*Frame) : 0.310
Stream size : 1.13 GiB (78%)
Writing library : XviD 63
Audio
ID : 1
Format : AC-3
Format/Info : Audio Coding 3
Mode extension : CM (complete main)
Codec ID : 2000
Duration : 1h 39mn
Bit rate mode : Constant
Bit rate : 448 Kbps
Channel(s) : 6 channels
Channel positions : Front: L C R, Side: L R, LFE
Sampling rate : 48.0 KHz
Bit depth : 16 bits
Compression mode : Lossy
Stream size : 318 MiB (21%)
Alignment : Split accross interleaves
Interleave, duration : 42 ms (1.00 video frame)
Interleave, preload duration : 500 ms

Скриншоты

[Profile]  [PM] 
Display posts:    
Reply to topic

Current time is: 03-Dec 09:39

All times are UTC + 2



You cannot post new topics in this forum
You cannot reply to topics in this forum
You cannot edit your posts in this forum
You cannot delete your posts in this forum
You cannot vote in polls in this forum
You cannot attach files in this forum
You cannot download files in this forum