Кориолан / Coriolanus (Рэйф Файнс / Ralph Fiennes) [2011, Великобритания, триллер, драма, DVDRip] Dub |Лицензия|

Reply to topic
 
Author
Message

Satyr ®

Gender: Unknown

Longevity: 11 years

Posts: 15401

Reputation: 55 [+] [-]

Satyr · Post 27-Feb-2012 22:54

[Quote] 

Кориолан / Coriolanus
-Страна: Великобритания
Жанр: триллер, драма
Год выпуска: 2011
Продолжительность: 01:58:04
Перевод: Профессиональный (дублированный) |Лицензия|
Cубтитры: нет-Режиссер: Рэйф Файнс / Ralph Fiennes-В ролях: Джерард Батлер, Рэйф Файнс, Ванесса Редгрейв, Брайан Кокс, Джессика Честейн, Джеймс Несбитт, Лубна Азабаль, Ашраф Бархом, Зоран Чича, Милош Дабич и др.-Описание: Сюжет картины основан на легенде о полководце Гнее Марцие Кориолане, жившем в Риме в пятом веке до нашей эры. Действие картины из Древнего Рима перенесено в наши дни, и вместо мечей главные герои «Кориолана» сжимают в руках автоматы.- -Качество видео: DVDRip |DVD R5|
Формат видео: AVI
Видео: 720x320 (2.25:1), 25 fps, XviD build 50 ~1368 kbps avg, 0.24 bit/pixel
Аудио: 48 kHz, AC3 Dolby Digital, 3/2 (L,C,R,l,r) + LFE ch, ~384.00 kbps avg
Скачать: Сэмпл-

MediaInfo

General
Format : AVI
Format/Info : Audio Video Interleave
File size : 1.45 GiB
Duration : 1h 58mn
Overall bit rate : 1 762 Kbps
Writing application : VirtualDubMod 1.5.10.2 (build 2540/release)
Writing library : VirtualDubMod build 2540/release
Video
ID : 0
Format : MPEG-4 Visual
Format profile : Advanced Simple@L5
Format settings, BVOP : 1
Format settings, QPel : No
Format settings, GMC : No warppoints
Format settings, Matrix : Custom
Codec ID : XVID
Codec ID/Hint : XviD
Duration : 1h 58mn
Bit rate : 1 369 Kbps
Width : 720 pixels
Height : 320 pixels
Display aspect ratio : 2.25:1
Frame rate : 25.000 fps
Color space : YUV
Chroma subsampling : 4:2:0
Bit depth : 8 bits
Scan type : Progressive
Compression mode : Lossy
Bits/(Pixel*Frame) : 0.238
Stream size : 1.13 GiB (78%)
Writing library : XviD 1.2.1 (UTC 2008-12-04)
Audio
ID : 1
Format : AC-3
Format/Info : Audio Coding 3
Mode extension : CM (complete main)
Codec ID : 2000
Duration : 1h 58mn
Bit rate mode : Constant
Bit rate : 384 Kbps
Channel(s) : 6 channels
Channel positions : Front: L C R, Side: L R, LFE
Sampling rate : 48.0 KHz
Bit depth : 16 bits
Compression mode : Lossy
Stream size : 324 MiB (22%)
Alignment : Split accross interleaves
Interleave, duration : 40 ms (1.00 video frame)
Interleave, preload duration : 500 ms

Скриншот c названием фильма

Скриншоты

[Profile]  [PM] 
Display posts:    
Reply to topic

Current time is: 05-Dec 09:14

All times are UTC + 2



You cannot post new topics in this forum
You cannot reply to topics in this forum
You cannot edit your posts in this forum
You cannot delete your posts in this forum
You cannot vote in polls in this forum
You cannot attach files in this forum
You cannot download files in this forum