Голодный кролик атакует / Seeking Justice (Роджер Дональдсон / Roger Donaldson) [2011, боевик, триллер, драма, BDRip-AVC] Dub

Reply to topic
 
Author
Message

Satyr ®

Gender: Unknown

Longevity: 11 years

Posts: 15401

Reputation: 55 [+] [-]

Satyr · Post 27-Feb-2012 22:59

[Quote] 

Голодный кролик атакует / Seeking Justice«Vengeance always has a price»
Страна: США
Жанр: боевик, триллер, драма
Год выпуска: 2011
Продолжительность: 01:45:01
Перевод: Профессиональный (дублированный) | Лицензия
Cубтитры: нет
Режиссер: Роджер Дональдсон / Roger Donaldson
В ролях: Николас Кейдж / Nicolas Cage
(Will Gerard), Дженьюэри Джонс / January Jones (Laura Gerard), Гай Пирс / Guy Pearce (Simon), Дженнифер Карпентер, Хэролд Перрино / Harold Perrineau (Jimmy), Ксандер Беркли / Xander Berkeley (Lieutenant Durgan), Айрон Э. Синглтон / IronE Singleton (Scar), Майк Пневски / Mike Pniewski (Gibbs), Моника Акоста / Monica Acosta (Audubon Zoo Visitor), Джо Крест / Joe Chrest (Detective Rudeski), Дж.Д. Эвермор / J.D. Evermore (Man on Elevator), Дэвид Дженсен / David Jensen (Gas Attendant)
Описание:
Фильм сфокусируется на человеке, супруга которого становится жертвой жестокого преступления, и он внедряется в тайную организацию мстителей.


СЭМПЛ
Качество видео: BDRip-AVC (BDRemux)
Формат видео: MKV
Видео: 1120x476 (2.35:1), 24.000 fps, AVC, ~1598 kbps, 0.125 bits/pixel
Аудио:48 kHz, AC3 Dolby Digital, 3/2 (L,C,R,l,r) + LFE ch, ~384 kbps RUS

Mtdiainfo

General
Unique ID : 219057749393591907153626937724310374921 (0xA4CCFCE7B786FAFE97E59652C473CA09)
Complete name : E:\Downloads\Golodniy krolik atakuet-1.45.chopper887.mkv
Format : Matroska
File size : 1.45 GiB
Duration : 1h 45mn
Overall bit rate : 1 981 Kbps
Movie name : Golodniy krolik atakuet-1.45.chopper887
Encoded date : UTC 2012-02-14 06:49:46
Writing application : mkvmerge v4.8.0 ('I Got The...') сборка от May 24 2011 03:12:58
Writing library : libebml v1.2.0 + libmatroska v1.1.0
Video
ID : 1
Format : AVC
Format/Info : Advanced Video Codec
Format profile : High@L4.0
Format settings, CABAC : Yes
Format settings, ReFrames : 10 frames
Format settings, GOP : M=1, N=24
Codec ID : V_MPEG4/ISO/AVC
Duration : 1h 45mn
Bit rate : 1 598 Kbps
Width : 1 120 pixels
Height : 476 pixels
Display aspect ratio : 2.35:1
Frame rate : 24.000 fps
Color space : YUV
Chroma subsampling : 4:2:0
Bit depth : 8 bits
Scan type : Progressive
Bits/(Pixel*Frame) : 0.125
Stream size : 1.14 GiB (79%)
Title : Golodniy krolik atakuet-1.45.chopper887
Writing library : x264 core 120 r2146 bcd41db
Encoding settings : cabac=1 / ref=10 / deblock=1:-2:-1 / analyse=0x3:0x133 / me=umh / subme=11 / psy=1 / psy_rd=1.00:0.07 / mixed_ref=1 / me_range=32 / chroma_me=1 / trellis=2 / 8x8dct=1 / cqm=0 / deadzone=21,11 / fast_pskip=0 / chroma_qp_offset=-3 / threads=12 / sliced_threads=0 / nr=0 / decimate=1 / interlaced=0 / bluray_compat=0 / constrained_intra=0 / bframes=7 / b_pyramid=2 / b_adapt=2 / b_bias=0 / direct=3 / weightb=1 / open_gop=0 / weightp=2 / keyint=250 / keyint_min=24 / scenecut=40 / intra_refresh=0 / rc_lookahead=80 / rc=2pass / mbtree=1 / bitrate=1598 / ratetol=1.0 / qcomp=0.60 / qpmin=0 / qpmax=69 / qpstep=4 / cplxblur=20.0 / qblur=0.5 / ip_ratio=1.40 / aq=1:1.00
Language : English
Audio
ID : 2
Format : AC-3
Format/Info : Audio Coding 3
Mode extension : CM (complete main)
Codec ID : A_AC3
Duration : 1h 45mn
Bit rate mode : Constant
Bit rate : 384 Kbps
Channel(s) : 6 channels
Channel positions : Front: L C R, Side: L R, LFE
Sampling rate : 48.0 KHz
Bit depth : 16 bits
Compression mode : Lossy
Stream size : 288 MiB (19%)
Title : Dub

Скриншоты

[Profile]  [PM] 
Display posts:    
Reply to topic

Current time is: 02-Dec 20:17

All times are UTC + 2



You cannot post new topics in this forum
You cannot reply to topics in this forum
You cannot edit your posts in this forum
You cannot delete your posts in this forum
You cannot vote in polls in this forum
You cannot attach files in this forum
You cannot download files in this forum