Белоснежка: Месть гномов / Mirror Mirror (Тарсем Синх / Tarsem Singh) [2012, США, фэнтези, драма, комедия, BDRip] DUB (Лицензия)

Reply to topic
 
Author
Message

Anonym ®

Gender: Unknown

Reputation: 55 [+] [-]

Anonym · Post 10-Jun-2012 18:56

[Quote] 

БелоСнежка: Месть Гномов / Mirror Mirror
«Новые страницы любимой сказки»
-Страна: США
Студии: Relativity Media, Yuk Films, Goldmann Pictures
Жанр: фэнтези, драма, комедия
Год выпуска: 2012
Продолжительность: 01:48:19-Перевод: профессиональный (дублированный) лицензия
Субтитры: нет-Режиссёр: Тарсем Синх / Tarsem Singh-В ролях: Джулия Робертс (The Queen), Лили Коллинз (Snow White), Арми Хаммер (Prince Alcott), Натан Лейн (Brighton), Джордан Прентис (Napoleon), Марк Повинелли (Half Pint), Джо Гнофо (Grub), Дэнни Вудберн (Grimm), Себастьян Сарасено (Wolf), Мартин Клеббэ (Butcher), Рональд Ли Кларк (Chuckles), Роберт Эммс (Charles Renbock).-Описание:
Злая Королева, мечтающая выйти замуж за красивого и богатого Принца, хитростью выдворяет из дворца Белоснежку и берет власть в свои руки. Но милая девушка не погибла в темном дремучем лесу, а связалась с бандой гномов-разбойников. Вместе они отомстят Злодейке!
-5.7/10 (11304) 6.141 (8118)-Качество видео: BDRip (Исходник Blu-ray 1080p)
Формат файла: AVI
Видео: XviD, 704x400 (16:9), 24.000 fps, 1465 kbps avg, 0.217 bit/pixel
Аудио: 48 kHz, AC3 Dolby Digital, 3/2 (L,C,R,l,r) + LFE ch, 448 kbps avg (Rus DUB)-

MediaInfo

Общее
Полное имя : D:\Torrent Rutracker\Belosnejka.Mest.Gnomov.2012.XviD.AC3.BDRip._by.ZNG505_.avi
Формат : AVI
Формат/Информация : Audio Video Interleave
Размер файла : 1,45 Гбайт
Продолжительность : 1 ч. 48 м.
Общий поток : 1922 Кбит/сек
Программа кодирования : VirtualDubModRus 1.5.10.2 (build 2542/release)
Библиотека кодирования : VirtualDubMod build 2542/release
Видео
Идентификатор : 0
Формат : MPEG-4 Visual
Профиль формата : Advanced Simple@L5
Параметр BVOP формата : 2
Параметр QPel формата : Нет
Параметр GMC формата : Без точки перехода
Параметр матрицы формата : Выборочная
Идентификатор кодека : XVID
Идентификатор кодека/Подсказка : XviD
Продолжительность : 1 ч. 48 м.
Битрейт : 1465 Кбит/сек
Ширина : 704 пикселя
Высота : 400 пикселей
Соотношение сторон : 16:9
Частота кадров : 24,000 кадра/сек
Цветовое пространство : YUV
Субдискретизация насыщенности : 4:2:0
Битовая глубина : 8 бит
Тип развёртки : Прогрессивная
Метод сжатия : С потерями
Бит/(Пиксели*Кадры) : 0.217
Размер потока : 1,11 Гбайт (76%)
Библиотека кодирования : XviD 65
Аудио
Идентификатор : 1
Формат : AC-3
Формат/Информация : Audio Coding 3
Расширение режима : CM (complete main)
Идентификатор кодека : 2000
Продолжительность : 1 ч. 48 м.
Вид битрейта : Постоянный
Битрейт : 448 Кбит/сек
Каналы : 6 каналов
Расположение каналов : Front: L C R, Side: L R, LFE
Частота : 48,0 КГц
Битовая глубина : 16 бит
Метод сжатия : С потерями
Размер потока : 347 Мбайт (23%)
Выравнивание : Разделение по промежуткам
Продолжительность промежутка : 42 мс. (1,00 видеокадр)
Время предзагрузки промежутка : 500 мс.
Заголовок : Rus DUB

Скриншот c названием фильма

Скриншоты

 
Display posts:    
Reply to topic

Current time is: 27-Nov 01:12

All times are UTC + 2



You cannot post new topics in this forum
You cannot reply to topics in this forum
You cannot edit your posts in this forum
You cannot delete your posts in this forum
You cannot vote in polls in this forum
You cannot attach files in this forum
You cannot download files in this forum