Козырные тузы / Smokin\' Aces (Джо Карнахан / Joe Carnahan) [2006, Великобритания, Франция, США, боевик, триллер, драма, криминал, детектив, WEB-DLRip-AVC] [Open Matte] AVO (Гаврилов) + AVO (Немахов) + Sub (Rus, Eng)

Reply to topic
 
Author
Message

Advocat ®

Gender: Unknown

Longevity: 11 years

Posts: 2910

Reputation: 0 [+] [-]

Advocat · Post 03-Mar-2018 01:50

[Quote] 

Козырные тузыSmokin' Aces- Год выпуска: 2006
Страна: Великобритания, Франция, США
Жанр: боевик, триллер, драма, криминал-Продолжительность: 01:49:06
Перевод #1: Авторский (одноголосый закадровый) А. Гаврилов
Перевод #2: Авторский (одноголосый закадровый) Ю. Немахов
Субтитры: русские (R5, комментарии), английские (SDH, комментарии)-Режиссёр: Джо Карнахан / Joe Carnahan
В ролях: Райан Рейнольдс, Рэй Лиотта, Энди Гарсиа, Джереми Пивен, Коммон, Кристофер Майкл Холли, Джоэл Эдгертон, Алиша Киз, Тараджи П. Хенсон, Крис Пайн, Кевин Дюран, Мори Стерлинг, Нестор Карбонелл, Томми Флэнаган, Мартин Хендерсон, Бен Аффлек, Питер Берг, Владимир Кулич, Джейсон Бейтман, Джозеф Раскин, Мэтью Фокс и др.-Описание: Гангстер Бадди Израэл согласился сотрудничать с ФБР и дать показания против своих мафиозных дружков. За его жизнь главой мафии назначено крупное вознаграждение в миллион долларов, и Бадди грозит реальная опасность распрощаться с жизнью еще до начала суда.
Охрана Израэла поручена двум агентам ФБР — Месснеру и Карратерсу, которым предстоит нелегкая задача защищать важного свидетеля от наемных убийц. Но работа агентов усложняется тем, что сам Бадди не привык сидеть в четырех стенах и упорно стремится появляться в людных местах и привлекать всеобщее внимание.-КиноПоиск | IMDb | Sample-Качество: WEB-DLRip-AVC (Источник: WEB-DL 1080p)
Формат: MKV
Видео: x264, 958x540 (16:9), 23.976 fps, ~2100 kbps avg, 0.284 bit/pixel
Аудио #1: Russian 48.0 KHz, АC3, 3/2 (L,C,R,l,r) + LFE ch, ~384.00 kbps avg |Гаврилов|
Аудио #2: Russian 48.0 KHz, АC3, 3/2 (L,C,R,l,r) + LFE ch, ~384.00 kbps avg |Немахов|
Формат субтитров: softsub (SRT)-

Релиз


Рип и синхронизация глав - whip93.

Сравнения скриншотов

Source vs. Encode

MediaInfo | x264 log

x264 log

---[Information] [15.02.2018 8:35:54] raw [info]: 958x540p 1:1 @ 24000/1001 fps (cfr)
---[Information] [15.02.2018 8:35:54] x264 [info]: using SAR=1/1
---[Information] [15.02.2018 8:35:54] x264 [info]: using cpu capabilities: MMX2 SSE2Fast SSSE3 SSE4.2 AVX
---[Information] [15.02.2018 8:35:54] x264 [info]: profile High, level 4.1
---[Information] [15.02.2018 14:23:26] x264 [info]: frame I:1336 Avg QP:16.89 size: 67473
---[Information] [15.02.2018 14:23:26] x264 [info]: frame P:41845 Avg QP:19.80 size: 21169
---[Information] [15.02.2018 14:23:26] x264 [info]: frame B:113770 Avg QP:22.31 size: 6447
---[Information] [15.02.2018 14:23:26] x264 [info]: consecutive B-frames: 3.9% 6.1% 9.4% 44.7% 12.1% 19.5% 2.3% 0.9% 0.2% 0.4% 0.3%
---[Information] [15.02.2018 14:23:26] x264 [info]: mb I I16..4: 7.5% 72.4% 20.0%
---[Information] [15.02.2018 14:23:26] x264 [info]: mb P I16..4: 1.6% 13.4% 1.7% P16..4: 43.1% 25.3% 6.1% 1.5% 0.1% skip: 7.1%
---[Information] [15.02.2018 14:23:26] x264 [info]: mb B I16..4: 0.1% 0.9% 0.2% B16..8: 34.2% 16.7% 2.6% direct: 5.8% skip:39.3% L0:39.4% L1:45.9% BI:14.7%
---[Information] [15.02.2018 14:23:26] x264 [info]: 8x8 transform intra:78.5% inter:64.4%
---[Information] [15.02.2018 14:23:26] x264 [info]: coded y,uvDC,uvAC intra: 81.1% 85.2% 59.5% inter: 21.6% 24.1% 2.9%
---[Information] [15.02.2018 14:23:26] x264 [info]: i16 v,h,dc,p: 30% 16% 9% 45%
---[Information] [15.02.2018 14:23:26] x264 [info]: i8 v,h,dc,ddl,ddr,vr,hd,vl,hu: 10% 8% 10% 9% 13% 13% 12% 12% 14%
---[Information] [15.02.2018 14:23:26] x264 [info]: i4 v,h,dc,ddl,ddr,vr,hd,vl,hu: 16% 9% 8% 8% 13% 13% 11% 10% 11%
---[Information] [15.02.2018 14:23:26] x264 [info]: i8c dc,h,v,p: 39% 25% 20% 16%
---[Information] [15.02.2018 14:23:26] x264 [info]: Weighted P-Frames: Y:2.5% UV:1.5%
---[Information] [15.02.2018 14:23:26] x264 [info]: ref P L0: 47.2% 5.6% 17.8% 5.9% 5.6% 3.6% 3.3% 1.7% 1.9% 1.4% 1.4% 1.0% 1.1% 0.8% 0.9% 0.7%
---[Information] [15.02.2018 14:23:26] x264 [info]: ref B L0: 78.8% 9.6% 3.5% 2.0% 1.5% 1.2% 0.7% 0.5% 0.5% 0.5% 0.4% 0.3% 0.2% 0.2% 0.1%
---[Information] [15.02.2018 14:23:26] x264 [info]: ref B L1: 96.4% 3.6%
---[Information] [15.02.2018 14:23:26] x264 [info]: kb/s:2089.11
---[Information] [15.02.2018 14:23:26] encoded 156951 frames, 7.53 fps, 2089.11 kb/s
General
Unique ID : 17757961879982509714853136738451035537 (0xD5C0F1E22E93F4F537A5078DF3D9591)
Complete name : F:\Smokin'.Aces.2006.WEB-DLRip.DD5.1.x264.-whip93.mkv
Format : Matroska
Format version : Version 4 / Version 2
File size : 2.18 GiB
Duration : 1h 49mn
Overall bit rate : 2 860 Kbps
Movie name : Козырные тузы | Smokin' Aces (2006) - Release by whip93
Encoded date : UTC 2018-02-15 16:30:54
Writing application : mkvmerge v20.0.0 ('I Am The Sun') 64-bit
Writing library : libebml v1.3.5 + libmatroska v1.4.8
DURATION : 01:48:32.339000000
NUMBER_OF_FRAMES : 2261
NUMBER_OF_BYTES : 115167
_STATISTICS_WRITING_APP : mkvmerge v20.0.0 ('I Am The Sun') 64-bit
_STATISTICS_WRITING_DATE_UT : 2018-02-15 16:30:54
_STATISTICS_TAGS : BPS DURATION NUMBER_OF_FRAMES NUMBER_OF_BYTES
Video
ID : 1
Format : AVC
Format/Info : Advanced Video Codec
Format profile : High@L4.1
Format settings, CABAC : Yes
Format settings, ReFrames : 16 frames
Codec ID : V_MPEG4/ISO/AVC
Duration : 1h 49mn
Bit rate : 2 100 Kbps
Width : 958 pixels
Height : 540 pixels
Display aspect ratio : 16:9
Frame rate mode : Constant
Frame rate : 23.976 fps
Color space : YUV
Chroma subsampling : 4:2:0
Bit depth : 8 bits
Scan type : Progressive
Bits/(Pixel*Frame) : 0.169
Stream size : 1.55 GiB (71%)
Title : Encoded by whip93
Writing library : x264 core 155 r2901 7d0ff22
Encoding settings : cabac=1 / ref=16 / deblock=1:-3:-3 / analyse=0x3:0x133 / me=umh / subme=11 / psy=1 / psy_rd=1.00:0.08 / mixed_ref=0 / me_range=64 / chroma_me=1 / trellis=2 / 8x8dct=1 / cqm=0 / deadzone=21,11 / fast_pskip=0 / chroma_qp_offset=-2 / threads=12 / lookahead_threads=3 / sliced_threads=0 / nr=0 / decimate=1 / interlaced=0 / bluray_compat=0 / constrained_intra=0 / bframes=10 / b_pyramid=2 / b_adapt=2 / b_bias=0 / direct=1 / weightb=1 / open_gop=0 / weightp=2 / keyint=240 / keyint_min=23 / scenecut=40 / intra_refresh=0 / rc_lookahead=90 / rc=2pass / mbtree=0 / bitrate=2100 / ratetol=1.0 / qcomp=0.72 / qpmin=0 / qpmax=69 / qpstep=4 / cplxblur=20.0 / qblur=0.5 / vbv_maxrate=50000 / vbv_bufsize=62500 / nal_hrd=none / filler=0 / ip_ratio=1.40 / pb_ratio=1.30 / aq=3:0.80 / zones=150708,156950,q=26
Language : English
Default : Yes
Forced : No
Color range : Limited
Color primaries : BT.709
Transfer characteristics : BT.709
Matrix coefficients : BT.709
Audio #1
ID : 2
Format : AC-3
Format/Info : Audio Coding 3
Mode extension : CM (complete main)
Format settings, Endianness : Big
Codec ID : A_AC3
Duration : 1h 49mn
Bit rate mode : Constant
Bit rate : 384 Kbps
Channel(s) : 6 channels
Channel positions : Front: L C R, Side: L R, LFE
Sampling rate : 48.0 KHz
Compression mode : Lossy
Stream size : 300 MiB (13%)
Title : AVO (Гаврилов)
Language : Russian
Default : Yes
Forced : No
Audio #2
ID : 3
Format : AC-3
Format/Info : Audio Coding 3
Mode extension : CM (complete main)
Format settings, Endianness : Big
Codec ID : A_AC3
Duration : 1h 49mn
Bit rate mode : Constant
Bit rate : 384 Kbps
Channel(s) : 6 channels
Channel positions : Front: L C R, Side: L R, LFE
Sampling rate : 48.0 KHz
Compression mode : Lossy
Stream size : 300 MiB (13%)
Title : AVO (Немахов)
Language : Russian
Default : No
Forced : No
Text #1
ID : 4
Format : UTF-8
Codec ID : S_TEXT/UTF8
Codec ID/Info : UTF-8 Plain Text
Title : R5
Language : Russian
Default : No
Forced : No
Text #2
ID : 5
Format : UTF-8
Codec ID : S_TEXT/UTF8
Codec ID/Info : UTF-8 Plain Text
Title : Commentary
Language : Russian
Default : No
Forced : No
Text #3
ID : 6
Format : UTF-8
Codec ID : S_TEXT/UTF8
Codec ID/Info : UTF-8 Plain Text
Title : Original (SDH)
Language : English
Default : No
Forced : No
Text #4
ID : 7
Format : UTF-8
Codec ID : S_TEXT/UTF8
Codec ID/Info : UTF-8 Plain Text
Title : Commentary
Language : English
Default : No
Forced : No
Menu
00:00:00.000 : en:Most Wanted
00:06:03.347 : en:Showman of the Year
00:11:35.356 : en:Meet the Players
00:18:40.228 : en:What's the Plan?
00:26:09.594 : en:Under Negotiation
00:30:39.822 : en:Wrong Place, Wrong Time
00:35:59.183 : en:Checkmate
00:40:39.296 : en:Mama's Got Your Back
00:48:42.654 : en:Loyal and Devout
00:56:06.180 : en:Recovered
01:00:18.941 : en:Elevator Exchange
01:04:38.024 : en:The Last Chip
01:10:35.967 : en:Deal Revoked
01:15:12.452 : en:Bring It!
01:22:36.860 : en:Accounted For
01:25:13.714 : en:The Aftermath
01:28:35.719 : en:Beat Out
01:31:34.769 : en:Betrayed
01:39:45.678 : en:Pulling the Plug
01:42:38.052 : en:End Titles

Скриншоты

-
[Profile]  [PM] 
Display posts:    
Reply to topic

Current time is: 27-Nov 15:52

All times are UTC + 2



You cannot post new topics in this forum
You cannot reply to topics in this forum
You cannot edit your posts in this forum
You cannot delete your posts in this forum
You cannot vote in polls in this forum
You cannot attach files in this forum
You cannot download files in this forum