(Rock) Сектор Газа - Дискография [11CD из серии "Коллекция" (DADC Austria) + 5 первотиражных CD] - 1990-1999, APE (image+.cue), lossless

Reply to topic
 
Author
Message

mario-OS ®

Gender: Male

Longevity: 11 years

Posts: 575

Reputation: 31 [+] [-]

Location: ...из страны, где шлюха стоит всего лишь доллар, солнце всегда и везде (с)

mario-OS · Post 15-Dec-2009 17:22

[Quote] 

Сектор Газа - Дискография [11CD из серии "Коллекция" (DADC Austria) + 5 первотиражных CD] Жанр: Rock
Год выпуска диска: 1990-1999
Производитель диска: Австрия, Россия
Аудио кодек: APE
Тип рипа: image+.cue
Битрейт аудио: lossless
Описание:
Вашему вниманию предлагается коллекция CD группы "Сектор Газа". Сборка составлена из дисков серии "Коллекция", напечатанных в Австрии в 1997-м году к 10-тилетию группы, отличающихся дополнительным треком-ремиксом, а также австрийских первотиражных 2-х частей "Избранных", "Баллад" и второй части сборника ремиксов "Extasy". Диски из личной коллекции, не хватает тут по факту только двух альбомов - первой части Extasy и 13-типесенного "Восставшего из ада" (3-я часть "Избранных" и 2-я часть "Баллад" представляют малый интерес с точки зрения коллекционеров) - эти диски мне пока не удалось купить, но, по мере появления их у меня (надеюсь, это когда-нибудь произойдет ), раздача естественно будет дополнена - рассчитываю в этой раздаче собрать полную дискографию.
-Альбомы:

1990 - Зловещие мертвецы

DADC Austria IFPI L553 A0100233929-0101
(c) 1997 S.B.A. Music Publishing, Inc.
(p) 1997 S.B.A. Production, Inc.
GL10113

Трек-лист:
1. Ой, ты, травушка зелёная (6:04)
2. Сифон (3:30)
3. Ку-ку (1:45)
4. Русский мат (2:27)
5. Без вина (3:35)
6. Голубой (2:54)
7. Страх (3:05)
8. Нас ждут из темноты (3:59)
9. Вампиры (4:55)
10. Моя смерть (3:56)
11. Когда помрёшь (3:38)
12. Чёрная магия (3:44)
13. Русский мат - Remix (6:18)-

Отчет EAC

Exact Audio Copy V0.99 prebeta 4 from 23. January 2008
Отчёт EAC об извлечении, выполненном 16. мая 2009, 15:49
Сектор Газа / Зловещие мертвецы
Дисковод: PIONEER DVD-RW DVR-212D Adapter: 1 ID: 0
Режим чтения : Достоверность
Использование точного потока : Да
Отключение кэша аудио : Да
Использование указателей C2 : Нет
Коррекция смещения при чтении : 48
Способность читать области Lead-in и Lead-out : Нет
Заполнение пропущенных сэмплов тишиной : Да
Удаление блоков с тишиной в начале и конце : Нет
При вычислениях CRC использовались нулевые сэмплы : Да
Интерфейс : Встроенный Win32-интерфейс для Win NT/2000
Выходной формат : Внутренние WAV-операции
Формат сэмплов : 44.100 Гц; 16 бит; стерео
TOC извлечённого CD
Трек | Старт | Длительность | Начальный сектор | Конечный сектор
---------------------------------------------------------------------
1 | 0:00.00 | 6:04.52 | 0 | 27351
2 | 6:04.52 | 3:30.38 | 27352 | 43139
3 | 9:35.15 | 1:45.60 | 43140 | 51074
4 | 11:21.00 | 2:27.25 | 51075 | 62124
5 | 13:48.25 | 3:35.35 | 62125 | 78284
6 | 17:23.60 | 2:54.00 | 78285 | 91334
7 | 20:17.60 | 3:05.15 | 91335 | 105224
8 | 23:23.00 | 3:59.27 | 105225 | 123176
9 | 27:22.27 | 4:55.40 | 123177 | 145341
10 | 32:17.67 | 3:56.20 | 145342 | 163061
11 | 36:14.12 | 3:38.60 | 163062 | 179471
12 | 39:52.72 | 3:44.00 | 179472 | 196271
13 | 43:36.72 | 6:18.45 | 196272 | 224666
Характеристики диапазона извлечения и сообщения об ошибках
Выбранный диапазон
Имя файла D:\Сектор Газа - Коллекция\1990 - Зловещие мертвецы\Сектор Газа - Зловещие мертвецы.wav
Пиковый уровень 100.0 %
Качество диапазона 99.9 %
CRC копии EA24F094
Копирование... OK
Ошибок не произошло
Конец отчёта

1990 - Ядрёна вошь

DADC Austria IFPI L553 A0100233906-0101
(c) 1997 S.B.A. Music Publishing, Inc.
(p) 1997 S.B.A. Production, Inc.
GL10112

Трек-лист:
1. Мы - совковые ребята (0:23)
2. Скотник (2:58)
3. Носки (2:46)
4. Импотент (3:34)
5. Ядрёна вошь (3:47)
6. Мент (2:25)
7. Колыбельная (2:29)
8. План (3:22)
9. Спор (4:25)
10. Караван (4:35)
11. Пердун (2:41)
12. Вечером на лавочке (4:06)
13. Возле дома твоего (3:05)
14. Минет (3:30)
15. Ядрёна вошь - Remix (8:15)-

Отчет EAC

Exact Audio Copy V0.99 prebeta 4 from 23. January 2008
Отчёт EAC об извлечении, выполненном 16. мая 2009, 14:34
Сектор Газа / Ядрена вошь
Дисковод: PIONEER DVD-RW DVR-212D Adapter: 1 ID: 0
Режим чтения : Достоверность
Использование точного потока : Да
Отключение кэша аудио : Да
Использование указателей C2 : Нет
Коррекция смещения при чтении : 48
Способность читать области Lead-in и Lead-out : Нет
Заполнение пропущенных сэмплов тишиной : Да
Удаление блоков с тишиной в начале и конце : Нет
При вычислениях CRC использовались нулевые сэмплы : Да
Интерфейс : Встроенный Win32-интерфейс для Win NT/2000
Выходной формат : Внутренние WAV-операции
Формат сэмплов : 44.100 Гц; 16 бит; стерео
TOC извлечённого CD
Трек | Старт | Длительность | Начальный сектор | Конечный сектор
---------------------------------------------------------------------
1 | 0:00.00 | 0:23.52 | 0 | 1776
2 | 0:23.52 | 2:58.30 | 1777 | 15156
3 | 3:22.07 | 2:46.65 | 15157 | 27671
4 | 6:08.72 | 3:34.38 | 27672 | 43759
5 | 9:43.35 | 3:47.62 | 43760 | 60846
6 | 13:31.22 | 2:24.70 | 60847 | 71716
7 | 15:56.17 | 2:29.40 | 71717 | 82931
8 | 18:25.57 | 3:22.05 | 82932 | 98086
9 | 21:47.62 | 4:26.00 | 98087 | 118036
10 | 26:13.62 | 4:35.48 | 118037 | 138709
11 | 30:49.35 | 2:40.67 | 138710 | 150776
12 | 33:30.27 | 4:07.15 | 150777 | 169316
13 | 37:37.42 | 3:05.35 | 169317 | 183226
14 | 40:43.02 | 3:32.03 | 183227 | 199129
15 | 44:15.05 | 8:15.10 | 199130 | 236264
Характеристики диапазона извлечения и сообщения об ошибках
Выбранный диапазон
Имя файла D:\Сектор Газа - Коллекция\Ядрена вошь\Сектор Газа - Ядрена вошь.wav
Пиковый уровень 98.6 %
Качество диапазона 100.0 %
CRC копии A34D00A2
Копирование... OK
Ошибок не произошло
Конец отчёта

1991 - Колхозный панк

DADC Austria IFPI L554 A0100233886-0101
(c) 1997 S.B.A. Music Publishing, Inc.
(p) 1997 S.B.A. Production, Inc.
GL10111

Трек-лист:
1. Вступление (2:07)
2. Колхозный панк (3:37)
3. Плуги-вуги (3:33)
4. Патриот (3:32)
5. Наркоман (3:37)
6. Банка (4:04)
7. Попец (2:28)
8. Местные (3:04)
9. Утопленник (4:48)
10. Пасха (5:33)
11. Плуги-вуги - Remix (5:18)-

Отчет EAC

Exact Audio Copy V0.99 prebeta 4 from 23. January 2008
Отчёт EAC об извлечении, выполненном 16. мая 2009, 13:49
Сектор Газа / Колхозный панк
Дисковод: PIONEER DVD-RW DVR-212D Adapter: 1 ID: 0
Режим чтения : Достоверность
Использование точного потока : Да
Отключение кэша аудио : Да
Использование указателей C2 : Нет
Коррекция смещения при чтении : 48
Способность читать области Lead-in и Lead-out : Нет
Заполнение пропущенных сэмплов тишиной : Да
Удаление блоков с тишиной в начале и конце : Нет
При вычислениях CRC использовались нулевые сэмплы : Да
Интерфейс : Встроенный Win32-интерфейс для Win NT/2000
Выходной формат : Внутренние WAV-операции
Формат сэмплов : 44.100 Гц; 16 бит; стерео
TOC извлечённого CD
Трек | Старт | Длительность | Начальный сектор | Конечный сектор
---------------------------------------------------------------------
1 | 0:00.00 | 2:07.05 | 0 | 9529
2 | 2:07.05 | 3:37.45 | 9530 | 25849
3 | 5:44.50 | 3:33.50 | 25850 | 41874
4 | 9:18.25 | 3:31.65 | 41875 | 57764
5 | 12:50.15 | 3:37.72 | 57765 | 74111
6 | 16:28.12 | 4:04.00 | 74112 | 92411
7 | 20:32.12 | 2:28.48 | 92412 | 103559
8 | 23:00.60 | 3:04.10 | 103560 | 117369
9 | 26:04.70 | 4:48.47 | 117370 | 139016
10 | 30:53.42 | 5:35.05 | 139017 | 164146
11 | 36:28.47 | 5:18.20 | 164147 | 188016
Характеристики диапазона извлечения и сообщения об ошибках
Выбранный диапазон
Имя файла D:\Сектор Газа - Коллекция\Колхозный панк\Сектор Газа - Колхозный панк.wav
Пиковый уровень 100.0 %
Качество диапазона 100.0 %
CRC копии DBAD2E56
Копирование... OK
Ошибок не произошло
Конец отчёта

1991 - Ночь перед Рождеством

DADC Austria IFPI L554 A0100233954-0101
(c) 1997 S.B.A. Music Publishing, Inc.
(p) 1997 S.B.A. Production, Inc.
GL10114

Трек-лист:
1. Привет, ребята, добрый день (2:28)
2. Ява (4:37)
3. Шары (2:38)
4. Давай-давай (3:12)
5. Белая горячка (3:12)
6. Голубь (3:52)
7. Презерватив (2:28)
8. Презерватив-2 (2:32)
9. Щи (3:47)
10. Здравствуйте, детишки (0:45)
11. Снегурочка (3:39)
12. Илья Муромец (2:49)
13. Кума (2:41)
14. Ночь перед Рождеством (4:30)
15. Голубь - Remix (7:20)-

Отчет EAC

Exact Audio Copy V0.99 prebeta 4 from 23. January 2008
Отчёт EAC об извлечении, выполненном 16. мая 2009, 23:08
Сектор Газа / Ночь перед Рожеством
Дисковод: PIONEER DVD-RW DVR-212D Adapter: 1 ID: 0
Режим чтения : Достоверность
Использование точного потока : Да
Отключение кэша аудио : Да
Использование указателей C2 : Нет
Коррекция смещения при чтении : 48
Способность читать области Lead-in и Lead-out : Нет
Заполнение пропущенных сэмплов тишиной : Да
Удаление блоков с тишиной в начале и конце : Нет
При вычислениях CRC использовались нулевые сэмплы : Да
Интерфейс : Встроенный Win32-интерфейс для Win NT/2000
Выходной формат : Внутренние WAV-операции
Формат сэмплов : 44.100 Гц; 16 бит; стерео
TOC извлечённого CD
Трек | Старт | Длительность | Начальный сектор | Конечный сектор
---------------------------------------------------------------------
1 | 0:00.00 | 2:28.30 | 0 | 11129
2 | 2:28.30 | 4:37.37 | 11130 | 31941
3 | 7:05.67 | 2:38.13 | 31942 | 43804
4 | 9:44.05 | 3:12.72 | 43805 | 58276
5 | 12:57.02 | 3:12.53 | 58277 | 72729
6 | 16:09.55 | 3:52.25 | 72730 | 90154
7 | 20:02.05 | 2:29.07 | 90155 | 101336
8 | 22:31.12 | 2:32.25 | 101337 | 112761
9 | 25:03.37 | 3:47.08 | 112762 | 129794
10 | 28:50.45 | 0:45.02 | 129795 | 133171
11 | 29:35.47 | 3:38.58 | 133172 | 149579
12 | 33:14.30 | 2:49.47 | 149580 | 162301
13 | 36:04.02 | 2:41.48 | 162302 | 174424
14 | 38:45.50 | 4:29.10 | 174425 | 194609
15 | 43:14.60 | 7:20.20 | 194610 | 227629
Характеристики диапазона извлечения и сообщения об ошибках
Выбранный диапазон
Имя файла D:\Сектор Газа - Коллекция\1991 - Ночь перед Рождеством\Сектор Газа - Ночь перед Рожеством.wav
Пиковый уровень 93.6 %
Качество диапазона 99.9 %
CRC копии 734972FC
Копирование... OK
Ошибок не произошло
Конец отчёта

1992 - Гуляй, мужик!

DADC Austria IFPI L554 A0100233964-0101
(c) 1997 S.B.A. Music Publishing, Inc.
(p) 1997 S.B.A. Production, Inc.
GL10115

Трек-лист:
1. Гуляй мужик (3:04)
2. Мастурбация (3:39)
3. Видак (3:02)
4. Колхозная (2:54)
5. Я устал (2:30)
6. Л.Т.П. (3:26)
7. Бомж (3:32)
8. Трипак (4:25)
9. Як на хуторе (3:24)
10. Вурдалак (2:39)
11. Моя бабка (2:54)
12. Частушки (5:30)
13. Видак - Remix (6:12)-

Отчет EAC

Exact Audio Copy V0.99 prebeta 4 from 23. January 2008
Отчёт EAC об извлечении, выполненном 17. мая 2009, 0:17
Сектор Газа / Гуляй, мужик!
Дисковод: PIONEER DVD-RW DVR-212D Adapter: 1 ID: 0
Режим чтения : Достоверность
Использование точного потока : Да
Отключение кэша аудио : Да
Использование указателей C2 : Нет
Коррекция смещения при чтении : 48
Способность читать области Lead-in и Lead-out : Нет
Заполнение пропущенных сэмплов тишиной : Да
Удаление блоков с тишиной в начале и конце : Нет
При вычислениях CRC использовались нулевые сэмплы : Да
Интерфейс : Встроенный Win32-интерфейс для Win NT/2000
Выходной формат : Внутренние WAV-операции
Формат сэмплов : 44.100 Гц; 16 бит; стерео
TOC извлечённого CD
Трек | Старт | Длительность | Начальный сектор | Конечный сектор
---------------------------------------------------------------------
1 | 0:00.00 | 3:04.57 | 0 | 13856
2 | 3:04.57 | 3:39.53 | 13857 | 30334
3 | 6:44.35 | 3:02.35 | 30335 | 44019
4 | 9:46.70 | 2:54.47 | 44020 | 57116
5 | 12:41.42 | 2:30.25 | 57117 | 68391
6 | 15:11.67 | 3:26.62 | 68392 | 83903
7 | 18:38.54 | 3:32.66 | 83904 | 99869
8 | 22:11.45 | 4:25.12 | 99870 | 119756
9 | 26:36.57 | 3:24.25 | 119757 | 135081
10 | 30:01.07 | 2:39.13 | 135082 | 147019
11 | 32:40.20 | 2:54.52 | 147020 | 160121
12 | 35:34.72 | 5:31.30 | 160122 | 184976
13 | 41:06.27 | 6:12.65 | 184977 | 212941
Характеристики диапазона извлечения и сообщения об ошибках
Выбранный диапазон
Имя файла D:\Сектор Газа - Коллекция\1992 - Гуляй, мужик!\Сектор Газа - Гуляй, мужик!.wav
Пиковый уровень 99.7 %
Качество диапазона 100.0 %
CRC копии 6718F7B2
Копирование... OK
Ошибок не произошло
Конец отчёта

1993 - Нажми на газ

DADC Austria IFPI L554 A0100233966-0101
(c) 1997 S.B.A. Music Publishing, Inc.
(p) 1997 S.B.A. Production, Inc.
GL10116

Трек-лист:
1. Нажми на газ (1:56)
2. Кабак (3:52)
3. Подвал (3:06)
4. Девушка (3:17)
5. Суд (3:56)
6. Взял вину на себя (3:14)
7. Оборотень (3:34)
8. Мажор (0:50)
9. Лирика (4:20)
10. Дурак (3:22)
11. Тёща (3:47)
12. Мумия (4:38)
13. Репетиция (5:07)
14. Тёща - Remix (5:59)-

Отчет EAC

Exact Audio Copy V0.99 prebeta 4 from 23. January 2008
Отчёт EAC об извлечении, выполненном 17. мая 2009, 0:41
Сектор Газа / Нажми на газ
Дисковод: PIONEER DVD-RW DVR-212D Adapter: 1 ID: 0
Режим чтения : Достоверность
Использование точного потока : Да
Отключение кэша аудио : Да
Использование указателей C2 : Нет
Коррекция смещения при чтении : 48
Способность читать области Lead-in и Lead-out : Нет
Заполнение пропущенных сэмплов тишиной : Да
Удаление блоков с тишиной в начале и конце : Нет
При вычислениях CRC использовались нулевые сэмплы : Да
Интерфейс : Встроенный Win32-интерфейс для Win NT/2000
Выходной формат : Внутренние WAV-операции
Формат сэмплов : 44.100 Гц; 16 бит; стерео
TOC извлечённого CD
Трек | Старт | Длительность | Начальный сектор | Конечный сектор
---------------------------------------------------------------------
1 | 0:00.00 | 1:55.27 | 0 | 8651
2 | 1:55.27 | 3:52.42 | 8652 | 26093
3 | 5:47.69 | 3:06.51 | 26094 | 40094
4 | 8:54.45 | 3:17.10 | 40095 | 54879
5 | 12:11.55 | 3:57.12 | 54880 | 72666
6 | 16:08.67 | 3:14.50 | 72667 | 87266
7 | 19:23.42 | 3:34.28 | 87267 | 103344
8 | 22:57.70 | 0:50.15 | 103345 | 107109
9 | 23:48.10 | 4:20.20 | 107110 | 126629
10 | 28:08.30 | 3:22.52 | 126630 | 141831
11 | 31:31.07 | 3:50.08 | 141832 | 159089
12 | 35:21.15 | 4:36.15 | 159090 | 179804
13 | 39:57.30 | 5:07.65 | 179805 | 202894
14 | 45:05.20 | 5:59.72 | 202895 | 229891
Характеристики диапазона извлечения и сообщения об ошибках
Выбранный диапазон
Имя файла D:\Сектор Газа - Коллекция\1993 - Нажми на газ\Сектор Газа - Нажми на газ.wav
Пиковый уровень 96.5 %
Качество диапазона 100.0 %
CRC копии 50013444
Копирование... OK
Ошибок не произошло
Конец отчёта

1993 - Сектор Газа (Первая версия, студия Black Box)

REC RECORDS RR-225007-2 G
(c) 1995 А/О "Becar Records"
(p) 1995 А/О "Zvuk Records"
RR-225007-2

Трек-лист:
1. Вступление
2. Сектор Газа (3:39)
3. Ангел секса (3:11)
4. Авто-мат (3:16)
5. Я мочился в ночь (2:11)
6. Эстрадная песня (1:57)
7. Аборт или роды (2:07)
8. Самогонщики (2:39)
9. Спокойной ночи, малыши (3:01)
10. Я - мразь (2:23)
11. Сумасшедший труп (2:05)
12. Подкуп (2:25)
13. Дураки (2:04)
14. Война (3:47)-

Отчет EAC

Exact Audio Copy V0.99 prebeta 4 from 23. January 2008
Отчёт EAC об извлечении, выполненном 17. мая 2009, 1:16
Сектор Газа / Сектор Газа
Дисковод: PIONEER DVD-RW DVR-212D Adapter: 1 ID: 0
Режим чтения : Достоверность
Использование точного потока : Да
Отключение кэша аудио : Да
Использование указателей C2 : Нет
Коррекция смещения при чтении : 48
Способность читать области Lead-in и Lead-out : Нет
Заполнение пропущенных сэмплов тишиной : Да
Удаление блоков с тишиной в начале и конце : Нет
При вычислениях CRC использовались нулевые сэмплы : Да
Интерфейс : Встроенный Win32-интерфейс для Win NT/2000
Выходной формат : Внутренние WAV-операции
Формат сэмплов : 44.100 Гц; 16 бит; стерео
TOC извлечённого CD
Трек | Старт | Длительность | Начальный сектор | Конечный сектор
---------------------------------------------------------------------
1 | 0:00.50 | 1:45.50 | 50 | 7974
2 | 1:46.25 | 4:01.12 | 7975 | 26061
3 | 5:47.37 | 2:59.38 | 26062 | 39524
4 | 8:47.00 | 3:33.00 | 39525 | 55499
5 | 12:20.00 | 2:20.00 | 55500 | 65999
6 | 14:40.00 | 1:59.25 | 66000 | 74949
7 | 16:39.25 | 2:24.50 | 74950 | 85799
8 | 19:04.00 | 2:25.50 | 85800 | 96724
9 | 21:29.50 | 3:00.00 | 96725 | 110224
10 | 24:29.50 | 1:51.20 | 110225 | 118569
11 | 26:20.70 | 2:04.67 | 118570 | 127936
12 | 28:25.62 | 2:23.38 | 127937 | 138699
13 | 30:49.25 | 2:06.50 | 138700 | 148199
14 | 32:56.00 | 4:22.00 | 148200 | 167849
Характеристики диапазона извлечения и сообщения об ошибках
Выбранный диапазон
Имя файла D:\Сектор Газа - Коллекция\1993 - Сектор Газа (Первая версия, студия BlackBox)\Сектор Газа - Сектор Газа.wav
Пиковый уровень 96.3 %
Качество диапазона 100.0 %
CRC копии D989B400
Копирование... OK
Ошибок не произошло
Конец отчёта

1994 - Кащей Бессмертный

DADC Austria IFPI L554 A0100233985-0101
(c) 1997 S.B.A. Music Publishing, Inc.
(p) 1997 S.B.A. Production, Inc.
GL10118

Трек-лист:
1. Интродукция (3:32)
2. Ария Ивана (7:33)
3. Ария Ивана и Лягушки (7:44)
4. Вторая ария Ивана (4:22)
5. Ария Бабы-Яги (5:39)
6. Ария графа Дракулы (3:57)
7. Ария Василисы Прекрасной (3:00)
8. Третья ария Ивана (3:41)
9. Ария Кащея Бессмертного (2:59)
10. Четвёртая ария Ивана (2:31)
11. Еду бабу выручать - Remix (5:43)-

Отчет EAC

Exact Audio Copy V0.99 prebeta 4 from 23. January 2008
Отчёт EAC об извлечении, выполненном 17. мая 2009, 16:17
Сектор Газа / Кащей Бессмертный
Дисковод: PIONEER DVD-RW DVR-212D Adapter: 1 ID: 0
Режим чтения : Достоверность
Использование точного потока : Да
Отключение кэша аудио : Да
Использование указателей C2 : Нет
Коррекция смещения при чтении : 48
Способность читать области Lead-in и Lead-out : Нет
Заполнение пропущенных сэмплов тишиной : Да
Удаление блоков с тишиной в начале и конце : Нет
При вычислениях CRC использовались нулевые сэмплы : Да
Интерфейс : Встроенный Win32-интерфейс для Win NT/2000
Выходной формат : Внутренние WAV-операции
Формат сэмплов : 44.100 Гц; 16 бит; стерео
TOC извлечённого CD
Трек | Старт | Длительность | Начальный сектор | Конечный сектор
---------------------------------------------------------------------
1 | 0:00.00 | 3:32.34 | 0 | 15933
2 | 3:32.34 | 7:33.11 | 15934 | 49919
3 | 11:05.45 | 7:44.62 | 49920 | 84781
4 | 18:50.32 | 4:22.33 | 84782 | 104464
5 | 23:12.65 | 5:39.22 | 104465 | 129911
6 | 28:52.12 | 3:57.70 | 129912 | 147756
7 | 32:50.07 | 3:00.50 | 147757 | 161306
8 | 35:50.57 | 3:40.65 | 161307 | 177871
9 | 39:31.47 | 2:59.30 | 177872 | 191326
10 | 42:31.02 | 2:29.55 | 191327 | 202556
11 | 45:00.57 | 5:43.52 | 202557 | 228333
Характеристики диапазона извлечения и сообщения об ошибках
Выбранный диапазон
Имя файла D:\Сектор Газа - Коллекция\1994 - Кащей Бессмертный\Сектор Газа - Кащей Бессмертный.wav
Пиковый уровень 89.5 %
Качество диапазона 100.0 %
CRC копии C52A01FE
Копирование... OK
Ошибок не произошло
Конец отчёта

1994 - Танцы после порева

DADC Austria IFPI L554 A0100233969-0101
(c) 1997 S.B.A. Music Publishing, Inc.
(p) 1997 S.B.A. Production, Inc.
GL10117

Трек-лист:
1. Танцы после порева (3:40)
2. Не даёт (2:59)
3. Метаморфоза (2:38)
4. Вдова (2:58)
5. Проститутка (2:22)
6. Комары (3:57)
7. Незнакомые места (3:57)
8. Казачья (2:47)
9. Сельский кайф (2:50)
10. Из чего же... (2:29)
11. Богатые тоже плачут (2:10)
12. Укус вампира (4:49)
13. Злая ночь (3:37)
14. Вдова - Remix (5:32)-

Отчет EAC

Exact Audio Copy V0.99 prebeta 4 from 23. January 2008
Отчёт EAC об извлечении, выполненном 17. мая 2009, 16:34
Сектор Газа / Танцы после порева
Дисковод: PIONEER DVD-RW DVR-212D Adapter: 1 ID: 0
Режим чтения : Достоверность
Использование точного потока : Да
Отключение кэша аудио : Да
Использование указателей C2 : Нет
Коррекция смещения при чтении : 48
Способность читать области Lead-in и Lead-out : Нет
Заполнение пропущенных сэмплов тишиной : Да
Удаление блоков с тишиной в начале и конце : Нет
При вычислениях CRC использовались нулевые сэмплы : Да
Интерфейс : Встроенный Win32-интерфейс для Win NT/2000
Выходной формат : Внутренние WAV-операции
Формат сэмплов : 44.100 Гц; 16 бит; стерео
TOC извлечённого CD
Трек | Старт | Длительность | Начальный сектор | Конечный сектор
---------------------------------------------------------------------
1 | 0:00.00 | 3:40.15 | 0 | 16514
2 | 3:40.15 | 2:59.30 | 16515 | 29969
3 | 6:39.45 | 2:37.67 | 29970 | 41811
4 | 9:17.37 | 2:58.27 | 41812 | 55188
5 | 12:15.64 | 2:22.43 | 55189 | 65881
6 | 14:38.32 | 3:57.43 | 65882 | 83699
7 | 18:36.00 | 3:57.07 | 83700 | 101481
8 | 22:33.07 | 2:47.30 | 101482 | 114036
9 | 25:20.37 | 2:49.63 | 114037 | 126774
10 | 28:10.25 | 2:30.65 | 126775 | 138089
11 | 30:41.15 | 2:10.10 | 138090 | 147849
12 | 32:51.25 | 4:50.70 | 147850 | 169669
13 | 37:42.20 | 3:35.17 | 169670 | 185811
14 | 41:17.37 | 5:32.50 | 185812 | 210761
Характеристики диапазона извлечения и сообщения об ошибках
Выбранный диапазон
Имя файла D:\Сектор Газа - Коллекция\1994 - Танцы после порева\Сектор Газа - Танцы после порева.wav
Пиковый уровень 92.8 %
Качество диапазона 100.0 %
CRC копии 34E1ACC4
Копирование... OK
Ошибок не произошло
Конец отчёта

1996 - Газовая атака

DADC Austria IFPI L554 A0100233992-0101
(c) 1997 S.B.A. Music Publishing, Inc.
(p) 1997 S.B.A. Production, Inc.
GL10119

Трек-лист:
1. Аванс (3:31)
2. Свидание (4:01)
3. Вылазка (4:24)
4. 30 лет (4:10)
5. Life (3:25)
6. Туман (3:43)
7. Твой звонок (5:06)
8. ГАИ (водительская подхалимская) (4:07)
9. Мак (4:42)
10. Чунга-чанга (2:52)
11. Хата (3:34)
12. Рассказ, услышанный в автокомбинате (3:54)
13. Опарыш (3:50)
14. Чунга-чанга - Remix (5:53)-

Отчет EAC

Exact Audio Copy V0.99 prebeta 4 from 23. January 2008
Отчёт EAC об извлечении, выполненном 17. мая 2009, 17:20
Сектор Газа / Газовая атака
Дисковод: PIONEER DVD-RW DVR-212D Adapter: 1 ID: 0
Режим чтения : Достоверность
Использование точного потока : Да
Отключение кэша аудио : Да
Использование указателей C2 : Нет
Коррекция смещения при чтении : 48
Способность читать области Lead-in и Lead-out : Нет
Заполнение пропущенных сэмплов тишиной : Да
Удаление блоков с тишиной в начале и конце : Нет
При вычислениях CRC использовались нулевые сэмплы : Да
Интерфейс : Встроенный Win32-интерфейс для Win NT/2000
Выходной формат : Внутренние WAV-операции
Формат сэмплов : 44.100 Гц; 16 бит; стерео
TOC извлечённого CD
Трек | Старт | Длительность | Начальный сектор | Конечный сектор
---------------------------------------------------------------------
1 | 0:00.00 | 3:34.17 | 0 | 16066
2 | 3:34.17 | 3:57.63 | 16067 | 33904
3 | 7:32.05 | 4:25.37 | 33905 | 53816
4 | 11:57.42 | 4:09.05 | 53817 | 72496
5 | 16:06.47 | 3:26.00 | 72497 | 87946
6 | 19:32.47 | 3:43.53 | 87947 | 104724
7 | 23:16.25 | 5:06.42 | 104725 | 127716
8 | 28:22.67 | 4:07.60 | 127717 | 146301
9 | 32:30.52 | 4:42.25 | 146302 | 167476
10 | 37:13.02 | 2:52.30 | 167477 | 180406
11 | 40:05.32 | 3:34.40 | 180407 | 196496
12 | 43:39.72 | 3:54.73 | 196497 | 214119
13 | 47:34.70 | 3:51.55 | 214120 | 231499
14 | 51:26.50 | 5:53.25 | 231500 | 257999
Характеристики диапазона извлечения и сообщения об ошибках
Выбранный диапазон
Имя файла D:\Сектор Газа - Коллекция\1996 - Газовая атака\Сектор Газа - Газовая атака.wav
Пиковый уровень 96.9 %
Качество диапазона 100.0 %
CRC копии 9DC40BCF
Копирование... OK
Ошибок не произошло
Конец отчёта

1996 - Избранное

DADC Austria IFPI L552 A0100185439-0101
(c) 1996 S.B.A. Records, Inc.
(p) 1996 GALA Records, Inc.
GLCD1129521-46

Трек-лист:
1. Привет, ребята, добрый день (2:29)
2. Щи (3:47)
3. Кума (2:41)
4. Ночь перед Рождеством (4:29)
5. Бомж (3:34)
6. Як на хуторе (3:25)
7. План (3:19)
8. Вечером на лавочке (4:03)
9. Возле дома твоего (3:04)
10. Взял вину на себя (3:15)
11. Лирика (4:20)
12. Дурак (3:22)
13. Тёща (3:45)
14. Казачья (2:47)
15. Сельский кайф (2:50)
16. Нас ждут из темноты (3:55)
17. Укус вампира (4:48)
18. Пасха (5:36)
19. Вальпургиева ночь (3:56)-

Отчет EAC

Exact Audio Copy V0.99 prebeta 4 from 23. January 2008
Отчёт EAC об извлечении, выполненном 17. мая 2009, 17:38
Сектор Газа / Избранное
Дисковод: PIONEER DVD-RW DVR-212D Adapter: 1 ID: 0
Режим чтения : Достоверность
Использование точного потока : Да
Отключение кэша аудио : Да
Использование указателей C2 : Нет
Коррекция смещения при чтении : 48
Способность читать области Lead-in и Lead-out : Нет
Заполнение пропущенных сэмплов тишиной : Да
Удаление блоков с тишиной в начале и конце : Нет
При вычислениях CRC использовались нулевые сэмплы : Да
Интерфейс : Встроенный Win32-интерфейс для Win NT/2000
Выходной формат : Внутренние WAV-операции
Формат сэмплов : 44.100 Гц; 16 бит; стерео
TOC извлечённого CD
Трек | Старт | Длительность | Начальный сектор | Конечный сектор
---------------------------------------------------------------------
1 | 0:00.00 | 2:29.15 | 0 | 11189
2 | 2:29.15 | 3:47.67 | 11190 | 28281
3 | 6:17.07 | 2:41.33 | 28282 | 40389
4 | 8:58.40 | 4:29.52 | 40390 | 60616
5 | 13:28.17 | 3:34.37 | 60617 | 76703
6 | 17:02.54 | 3:25.48 | 76704 | 92126
7 | 20:28.27 | 3:19.08 | 92127 | 107059
8 | 23:47.35 | 4:03.27 | 107060 | 125311
9 | 27:50.62 | 3:04.03 | 125312 | 139114
10 | 30:54.65 | 3:15.57 | 139115 | 153796
11 | 34:10.47 | 4:20.20 | 153797 | 173316
12 | 38:30.67 | 3:22.18 | 173317 | 188484
13 | 41:53.10 | 3:45.57 | 188485 | 205416
14 | 45:38.67 | 2:47.33 | 205417 | 217974
15 | 48:26.25 | 2:50.72 | 217975 | 230796
16 | 51:17.22 | 3:55.43 | 230797 | 248464
17 | 55:12.65 | 4:48.20 | 248465 | 270084
18 | 60:01.10 | 5:36.45 | 270085 | 295329
19 | 65:37.55 | 3:56.57 | 295330 | 313086
Характеристики диапазона извлечения и сообщения об ошибках
Выбранный диапазон
Имя файла D:\Сектор Газа - Коллекция\1996 - Избранное\Сектор Газа - Избранное.wav
Пиковый уровень 94.0 %
Качество диапазона 100.0 %
CRC копии 8CA374BC
Копирование... OK
Ошибок не произошло
Конец отчёта

1996 - Избранное II

DADC Austria IFPI L554 A0100206013-0101
(c) 1996 S.B.A. Records, Inc.
(p) 1996 GALA Records, Inc.
GLCD1019701-59

Трек-лист:
1. Носки (2:44)
2. Мент (2:28)
3. Колыбельная (2:27)
4. Ой, ты, травушка зелёная (6:04)
5. Русский мат (2:26)
6. Моя смерть (3:57)
7. Ява (4:40)
8. Шары (2:41)
9. Давай-давай (3:13)
10. Видак (3:05)
11. Частушки (5:34)
12. Кабак (3:54)
13. Нажми на газ (1:57)
14. Колхозный панк (3:38)
15. Попец (2:27)
16. Местные (3:05)
17. Вдова (2:57)
18. Из чего же... (2:30)
19. Каберне (5:08)
20. Еду бабу выручать (1:40)
21. Ария Василисы Прекрасной (2:17)
22. Ария Кащея (2:14)-

Отчет EAC

Exact Audio Copy V0.99 prebeta 4 from 23. January 2008
Отчёт EAC об извлечении, выполненном 17. мая 2009, 17:51
Сектор Газа / Избранное II
Дисковод: PIONEER DVD-RW DVR-212D Adapter: 1 ID: 0
Режим чтения : Достоверность
Использование точного потока : Да
Отключение кэша аудио : Да
Использование указателей C2 : Нет
Коррекция смещения при чтении : 48
Способность читать области Lead-in и Lead-out : Нет
Заполнение пропущенных сэмплов тишиной : Да
Удаление блоков с тишиной в начале и конце : Нет
При вычислениях CRC использовались нулевые сэмплы : Да
Интерфейс : Встроенный Win32-интерфейс для Win NT/2000
Выходной формат : Внутренние WAV-операции
Формат сэмплов : 44.100 Гц; 16 бит; стерео
TOC извлечённого CD
Трек | Старт | Длительность | Начальный сектор | Конечный сектор
---------------------------------------------------------------------
1 | 0:00.00 | 2:46.45 | 0 | 12494
2 | 2:46.45 | 2:27.02 | 12495 | 23521
3 | 5:13.47 | 2:27.58 | 23522 | 34604
4 | 7:41.30 | 6:03.55 | 34605 | 61884
5 | 13:45.10 | 2:25.65 | 61885 | 72824
6 | 16:11.00 | 3:55.15 | 72825 | 90464
7 | 20:06.15 | 4:37.45 | 90465 | 111284
8 | 24:43.60 | 2:38.25 | 111285 | 123159
9 | 27:22.10 | 3:15.15 | 123160 | 137799
10 | 30:37.25 | 3:04.52 | 137800 | 151651
11 | 33:42.02 | 5:33.53 | 151652 | 176679
12 | 39:15.55 | 3:54.20 | 176680 | 194249
13 | 43:10.00 | 1:55.37 | 194250 | 202911
14 | 45:05.37 | 3:36.40 | 202912 | 219151
15 | 48:42.02 | 2:27.53 | 219152 | 230229
16 | 51:09.55 | 3:03.35 | 230230 | 243989
17 | 54:13.15 | 2:57.70 | 243990 | 257334
18 | 57:11.10 | 2:30.35 | 257335 | 268619
19 | 59:41.45 | 5:08.02 | 268620 | 291721
20 | 64:49.47 | 1:40.28 | 291722 | 299249
21 | 66:30.00 | 2:17.72 | 299250 | 309596
22 | 68:47.72 | 2:10.03 | 309597 | 319349
Характеристики диапазона извлечения и сообщения об ошибках
Выбранный диапазон
Имя файла D:\Сектор Газа - Коллекция\1996 - Избранное II\Сектор Газа - Избранное II.wav
Пиковый уровень 99.9 %
Качество диапазона 100.0 %
CRC копии 676635F1
Копирование... OK
Ошибок не произошло
Конец отчёта

1997 - Наркологический университет миллионов

DADC Austria IFPI L554 A0100233993-0101
(c) 1997 S.B.A. Music Publishing, Inc.
(p) 1997 S.B.A. Production, Inc.
GL10120

Трек-лист:
1. Опять сегодня (2:22)
2. Кусок (2:23)
3. Новогодняя песня (2:40)
4. Песенка (3:19)
5. Похмел (3:32)
6. Самые лучшие тачки (3:25)
7. Марш наркоманов (3:23)
8. Свин (4:39)
9. Любовь раскумаренная (4:29)
10. Хорошо в деревне летом (3:33)
11. Пора домой (3:54)
12. Звёздная болезнь (3:37)
13. Вальпургиева ночь (3:54)
14. Песенка - Remix (6:33)-

Отчет EAC

Exact Audio Copy V0.99 prebeta 4 from 23. January 2008
Отчёт EAC об извлечении, выполненном 17. мая 2009, 18:27
Сектор Газа / Наркологический университет миллионов
Дисковод: PIONEER DVD-RW DVR-212D Adapter: 1 ID: 0
Режим чтения : Достоверность
Использование точного потока : Да
Отключение кэша аудио : Да
Использование указателей C2 : Нет
Коррекция смещения при чтении : 48
Способность читать области Lead-in и Lead-out : Нет
Заполнение пропущенных сэмплов тишиной : Да
Удаление блоков с тишиной в начале и конце : Нет
При вычислениях CRC использовались нулевые сэмплы : Да
Интерфейс : Встроенный Win32-интерфейс для Win NT/2000
Выходной формат : Внутренние WAV-операции
Формат сэмплов : 44.100 Гц; 16 бит; стерео
TOC извлечённого CD
Трек | Старт | Длительность | Начальный сектор | Конечный сектор
---------------------------------------------------------------------
1 | 0:00.00 | 2:22.17 | 0 | 10666
2 | 2:22.17 | 2:23.08 | 10667 | 21399
3 | 4:45.25 | 2:40.67 | 21400 | 33466
4 | 7:26.17 | 3:18.68 | 33467 | 48384
5 | 10:45.10 | 3:32.72 | 48385 | 64356
6 | 14:18.07 | 3:25.63 | 64357 | 79794
7 | 17:43.70 | 3:23.20 | 79795 | 95039
8 | 21:07.15 | 4:39.07 | 95040 | 115971
9 | 25:46.22 | 4:29.30 | 115972 | 136176
10 | 30:15.52 | 3:34.03 | 136177 | 152229
11 | 33:49.55 | 3:54.30 | 152230 | 169809
12 | 37:44.10 | 3:38.10 | 169810 | 186169
13 | 41:22.20 | 3:55.40 | 186170 | 203834
14 | 45:17.60 | 6:33.62 | 203835 | 233371
Характеристики диапазона извлечения и сообщения об ошибках
Выбранный диапазон
Имя файла D:\Сектор Газа - Коллекция\1997 - Наркологический университет миллионов\Сектор Газа - Наркологический университет миллионов.wav
Пиковый уровень 99.9 %
Качество диапазона 100.0 %
CRC копии 68E46A48
Копирование... OK
Ошибок не произошло
Конец отчёта

1997 - Сектор Газа (Вторая версия, студия Gala Records)

DADC Austria IFPI L555 A0100242807-0101
(c) 1997 S.B.A. Music Publishing, Inc.
(p) 1997 S.B.A. Production, Inc.
GL10121

Трек-лист:
1. Сектор Газа (3:39)
2. Ангел секса (3:10)
3. Авто мат (3:16)
4. Я мочился в ночь (2:11)
5. Эстрадная песня (1:57)
6. Аборт или роды (2:07)
7. Самогонщики (2:39)
8. Спокойной ночи малыши (3:01)
9. Я - мразь (2:22)
10. Сумасшедший труп (2:05)
11. Подкуп (2:25)
12. Дураки (2:03)
13. Война (3:48)-

Отчет EAC

Exact Audio Copy V0.99 prebeta 4 from 23. January 2008
Отчёт EAC об извлечении, выполненном 17. мая 2009, 18:48
Сектор Газа / Сектор Газа
Дисковод: PIONEER DVD-RW DVR-212D Adapter: 1 ID: 0
Режим чтения : Достоверность
Использование точного потока : Да
Отключение кэша аудио : Да
Использование указателей C2 : Нет
Коррекция смещения при чтении : 48
Способность читать области Lead-in и Lead-out : Нет
Заполнение пропущенных сэмплов тишиной : Да
Удаление блоков с тишиной в начале и конце : Нет
При вычислениях CRC использовались нулевые сэмплы : Да
Интерфейс : Встроенный Win32-интерфейс для Win NT/2000
Выходной формат : Внутренние WAV-операции
Формат сэмплов : 44.100 Гц; 16 бит; стерео
TOC извлечённого CD
Трек | Старт | Длительность | Начальный сектор | Конечный сектор
---------------------------------------------------------------------
1 | 0:00.00 | 3:39.07 | 0 | 16431
2 | 3:39.07 | 3:10.68 | 16432 | 30749
3 | 6:50.00 | 3:16.64 | 30750 | 45513
4 | 10:06.64 | 2:11.13 | 45514 | 55351
5 | 12:18.02 | 1:57.03 | 55352 | 64129
6 | 14:15.05 | 2:07.07 | 64130 | 73661
7 | 16:22.12 | 2:39.45 | 73662 | 85631
8 | 19:01.57 | 3:01.45 | 85632 | 99251
9 | 22:03.27 | 2:22.73 | 99252 | 109974
10 | 24:26.25 | 2:05.32 | 109975 | 119381
11 | 26:31.57 | 2:25.40 | 119382 | 130296
12 | 28:57.22 | 2:03.73 | 130297 | 139594
13 | 31:01.20 | 3:48.02 | 139595 | 156696
Характеристики диапазона извлечения и сообщения об ошибках
Выбранный диапазон
Имя файла D:\Сектор Газа - Коллекция\1997 - Сектор Газа (Вторая версия, студия Gala Records)\Сектор Газа - Сектор Газа.wav
Пиковый уровень 100.0 %
Качество диапазона 100.0 %
CRC копии 013A3F23
Копирование... OK
Ошибок не произошло
Конец отчёта

1998 - Баллады

DADC Austria IFPI L555 A0100250111-0101
(c) 1998 S.B.A. Production, Inc.
(p) 1998 S.B.A. Production, Inc.
GL10154

Трек-лист:
1. Твой звонок (5:06)
2. Туман (3:44)
3. 30 лет (4:10)
4. Life (3:26)
5. Взял вину на себя (3:13)
6. Ночь перед Рождеством (4:28)
7. Укус вампира (4:46)
8. Пора домой (3:56)
9. Утопленник (4:46)
10. Злая ночь (3:36)
11. Бомж (3:32)
12. Лирика (4:19)-

Отчет EAC

Exact Audio Copy V0.99 prebeta 4 from 23. January 2008
Отчёт EAC об извлечении, выполненном 17. мая 2009, 19:04
Сектор Газа / Баллады
Дисковод: PIONEER DVD-RW DVR-212D Adapter: 1 ID: 0
Режим чтения : Достоверность
Использование точного потока : Да
Отключение кэша аудио : Да
Использование указателей C2 : Нет
Коррекция смещения при чтении : 48
Способность читать области Lead-in и Lead-out : Нет
Заполнение пропущенных сэмплов тишиной : Да
Удаление блоков с тишиной в начале и конце : Нет
При вычислениях CRC использовались нулевые сэмплы : Да
Интерфейс : Встроенный Win32-интерфейс для Win NT/2000
Выходной формат : Внутренние WAV-операции
Формат сэмплов : 44.100 Гц; 16 бит; стерео
TOC извлечённого CD
Трек | Старт | Длительность | Начальный сектор | Конечный сектор
---------------------------------------------------------------------
1 | 0:00.00 | 5:06.15 | 0 | 22964
2 | 5:06.15 | 3:44.05 | 22965 | 39769
3 | 8:50.20 | 4:10.07 | 39770 | 58526
4 | 13:00.27 | 3:26.05 | 58527 | 73981
5 | 16:26.32 | 3:13.18 | 73982 | 88474
6 | 19:39.50 | 4:28.02 | 88475 | 108576
7 | 24:07.52 | 4:46.45 | 108577 | 130071
8 | 28:54.22 | 3:56.25 | 130072 | 147796
9 | 32:50.47 | 4:46.08 | 147797 | 169254
10 | 37:36.55 | 3:36.32 | 169255 | 185486
11 | 41:13.12 | 3:32.60 | 185487 | 201446
12 | 44:45.72 | 4:19.25 | 201447 | 220896
Характеристики диапазона извлечения и сообщения об ошибках
Выбранный диапазон
Имя файла D:\Сектор Газа - Коллекция\1998 - Баллады\Сектор Газа - Баллады.wav
Пиковый уровень 100.0 %
Качество диапазона 100.0 %
CRC копии 4A4DEC3E
Копирование... OK
Ошибок не произошло
Конец отчёта

1999 - Extasy 2

РОФФ Текнолоджиз IFPI LJ41 A22082
(c) 1999 S.B.A. Production, Inc.
(p) 1999 S.B.A. Production, Inc.
GL10319

Трек-лист:
1. Плуги-вуги (Remix) 05:16
2. Русский мат (Remix) 06:16
3. Ядрёна вошь (remix) 08:13
4. Голубь (Remix) 07:19
5. Видак (Remix) 06:11
6. Тёща (Remix) 05:58
7. Вдова (Remix) 05:31
8. Еду бабу выручать (Remix) 05:42
9. Чунга-чанга (Remix) 05:52
10. Песенка (Remix) 06:32-

Отчет EAC

Exact Audio Copy V0.99 prebeta 4 from 23. January 2008
Отчёт EAC об извлечении, выполненном 17. мая 2009, 19:18
Сектор Газа / Extasy 2
Дисковод: PIONEER DVD-RW DVR-212D Adapter: 1 ID: 0
Режим чтения : Достоверность
Использование точного потока : Да
Отключение кэша аудио : Да
Использование указателей C2 : Нет
Коррекция смещения при чтении : 48
Способность читать области Lead-in и Lead-out : Нет
Заполнение пропущенных сэмплов тишиной : Да
Удаление блоков с тишиной в начале и конце : Нет
При вычислениях CRC использовались нулевые сэмплы : Да
Интерфейс : Встроенный Win32-интерфейс для Win NT/2000
Выходной формат : Внутренние WAV-операции
Формат сэмплов : 44.100 Гц; 16 бит; стерео
TOC извлечённого CD
Трек | Старт | Длительность | Начальный сектор | Конечный сектор
---------------------------------------------------------------------
1 | 0:00.00 | 5:18.42 | 0 | 23891
2 | 5:18.42 | 6:18.46 | 23892 | 52287
3 | 11:37.13 | 8:15.67 | 52288 | 89479
4 | 19:53.05 | 7:21.24 | 89480 | 122578
5 | 27:14.29 | 6:13.51 | 122579 | 150604
6 | 33:28.05 | 6:00.33 | 150605 | 177637
7 | 39:28.38 | 5:33.53 | 177638 | 202665
8 | 45:02.16 | 5:43.74 | 202666 | 228464
9 | 50:46.15 | 5:54.42 | 228465 | 255056
10 | 56:40.57 | 6:32.52 | 255057 | 284508
Характеристики диапазона извлечения и сообщения об ошибках
Выбранный диапазон
Имя файла D:\Сектор Газа - Коллекция\1999 - Extasy 2\Сектор Газа - Extasy 2.wav
Пиковый уровень 96.5 %
Качество диапазона 100.0 %
CRC копии BFAA4766
Копирование... OK
Ошибок не произошло
Конец отчёта
-
"Mario-os" release style ®
[Profile]  [PM] 
Display posts:    
Reply to topic

Current time is: 27-Feb 20:26

All times are UTC + 2



You cannot post new topics in this forum
You cannot reply to topics in this forum
You cannot edit your posts in this forum
You cannot delete your posts in this forum
You cannot vote in polls in this forum
You cannot attach files in this forum
You cannot download files in this forum