(Eurodance, Pop) Haddaway - 3 Albums + 3 Singles - 1992-1999, FLAC (image+.cue), lossless

Reply to topic
 
Author
Message

mario-OS ®

Gender: Male

Longevity: 11 years

Posts: 575

Reputation: 31 [+] [-]

Location: ...из страны, где шлюха стоит всего лишь доллар, солнце всегда и везде (с)

mario-OS · Post 24-Jan-2010 14:09

[Quote] 

Haddaway - 3 Albums + 3 Singles- -Страна: Германия
Жанр: Eurodance/Pop
Годы выпуска: 1992-1999
Аудио кодек: FLAC
Тип рипа: image+.cue
Битрейт аудио: lossless
Общая продолжительность: 04:03:25
-

Биография

Nester Alexander Haddaway родился 9 января 1965 года в Тринидаде. Самый большой успех выпал в 1993-м году после встречи с Тони Хендриком Tony Hendrik, известным музыкальным продюсером из Coconut Records (A La carte, Bad Boys Blue, Xanadu, Silent Circle, Londonbeat). Дебютный сингл What is Love (1993) занял первое место в чартах практически всех стран Европы, Азии, Северной и Латинской Америки. Последовашие синглы Life, I Miss You и Rock My Heart закрепили за Haddaway славу одного из самых популярных евродэнс-исполнителей.
К сожалению, интерес к исполнителю постепенно стал угасать. После выпуска третьего альбома Let’s Do It Now 1998 Haddaway оставил Coconut, но выпустив 2 диска на других рекорд-лэйблах (My Face 2001 и Love Makes 2002) музыкант вновь вернулся к своим первым продюсерам Тони Хендрик и Карин Хартманн.
Интересным напоминанием миру о его творчестве стал фильм "Night at the Roxbury" снятый студией CBS Субботним вечером в прямом эфире в 1999 году, в котором композиция What Is Love используется как центральная тема
14.01.2008 Haddaway выступал на концерте "Премия ХитФМ" на Украине, вместе с известными евродэнс-группами Rednex и Culture Beat.
Albums

1993 - The Album

Треклист:

01. What Is Love (4:31)
02. Shout (4:36)
03. Yeah (3:43)
04. Rock My Heart (4:20)
05. When The Feeling's Gone (4:17)
06. What Is Love (Rapino-Brothers-Mix) (3:50)
07. Life (4:17)
08. Mama's House (4:05)
09. Come Back (Love Has Got A Hold On Me) (4:01)
10. Sing About Love (4:43)
11. I Miss You (4:15)
12. Life (Album Re-Mix) (4:45)

Отчет EAC

Exact Audio Copy V0.99 prebeta 4 from 23. January 2008
Отчёт EAC об извлечении, выполненном 22. января 2009, 18:04
Haddaway / The Album
Дисковод: PLEXTOR DVDR PX-755A Adapter: 0 ID: 0
Режим чтения : Достоверность
Использование точного потока : Да
Отключение кэша аудио : Да
Использование указателей C2 : Нет
Коррекция смещения при чтении : 30
Способность читать области Lead-in и Lead-out : Нет
Заполнение пропущенных сэмплов тишиной : Да
Удаление блоков с тишиной в начале и конце : Нет
При вычислениях CRC использовались нулевые сэмплы : Да
Интерфейс : Установленный внешний ASPI-интерфейс
Выходной формат : Внутренние WAV-операции
Формат сэмплов : 44.100 Гц; 16 бит; стерео
TOC извлечённого CD
Трек | Старт | Длительность | Начальный сектор | Конечный сектор
---------------------------------------------------------------------
1 | 0:00.33 | 4:31.20 | 33 | 20377
2 | 4:31.53 | 4:36.22 | 20378 | 41099
3 | 9:08.00 | 3:43.33 | 41100 | 57857
4 | 12:51.33 | 4:20.17 | 57858 | 77374
5 | 17:11.50 | 4:17.18 | 77375 | 96667
6 | 21:28.68 | 3:50.15 | 96668 | 113932
7 | 25:19.08 | 4:17.27 | 113933 | 133234
8 | 29:36.35 | 4:05.18 | 133235 | 151627
9 | 33:41.53 | 4:00.62 | 151628 | 169689
10 | 37:42.40 | 4:42.50 | 169690 | 190889
11 | 42:25.15 | 4:14.45 | 190890 | 209984
12 | 46:39.60 | 4:44.60 | 209985 | 231344
Характеристики диапазона извлечения и сообщения об ошибках
Выбранный диапазон
Имя файла D:\Eurodance Uncompress\!Haddaway Lossless\Albums\Haddaway - The Album (1993-FLAC-aZo)\Haddaway - The Album.wav
Пиковый уровень 100.0 %
Качество диапазона 100.0 %
CRC теста B6167459
CRC копии B6167459
Копирование... OK
Ошибок не произошло
AccurateRip: сводка
Трек 1 точное извлечение (доверие 26) [19523033]
Трек 2 точное извлечение (доверие 26) [A762D72F]
Трек 3 точное извлечение (доверие 26) [BF35FD93]
Трек 4 точное извлечение (доверие 26) [4402DA4D]
Трек 5 точное извлечение (доверие 25) [7E91ECFC]
Трек 6 точное извлечение (доверие 25) [41DDC1C9]
Трек 7 точное извлечение (доверие 26) [B19B3FB2]
Трек 8 точное извлечение (доверие 26) [F319CFE0]
Трек 9 точное извлечение (доверие 25) [7639AE35]
Трек 10 точное извлечение (доверие 26) [BC0205BE]
Трек 11 точное извлечение (доверие 26) [CC309D96]
Трек 12 точное извлечение (доверие 25) [2E8E3748]
Все треки извлечены точно
Конец отчёта

1995 - The Drive

Треклист:
01. Fly Away (4:06)
02. I Know (4:31)
03. Breakaway (4:42)
04. Lover Be Thy Name (3:50)
05. Waiting For A Better World (4:24)
06. Give It Up (4:17)
07. Catch A Fire (4:13)
08. Desert Prayer (5:54)
09. The First Cut Is The Deepest (4:24)
10. Baby Don't Go (3:54)
11. Freedom Is (4:17)
12. Another Day Without You (4:43)

Отчет EAC

Exact Audio Copy V0.99 prebeta 4 from 23. January 2008
Отчёт EAC об извлечении, выполненном 22. января 2009, 20:51
Haddaway / The Drive
Дисковод: PLEXTOR DVDR PX-755A Adapter: 0 ID: 0
Режим чтения : Достоверность
Использование точного потока : Да
Отключение кэша аудио : Да
Использование указателей C2 : Нет
Коррекция смещения при чтении : 30
Способность читать области Lead-in и Lead-out : Нет
Заполнение пропущенных сэмплов тишиной : Да
Удаление блоков с тишиной в начале и конце : Нет
При вычислениях CRC использовались нулевые сэмплы : Да
Интерфейс : Установленный внешний ASPI-интерфейс
Выходной формат : Внутренние WAV-операции
Формат сэмплов : 44.100 Гц; 16 бит; стерео
TOC извлечённого CD
Трек | Старт | Длительность | Начальный сектор | Конечный сектор
---------------------------------------------------------------------
1 | 0:00.00 | 4:05.55 | 0 | 18429
2 | 4:05.55 | 4:30.57 | 18430 | 38736
3 | 8:36.37 | 4:41.38 | 38737 | 59849
4 | 13:18.00 | 3:50.12 | 59850 | 77111
5 | 17:08.12 | 4:24.05 | 77112 | 96916
6 | 21:32.17 | 4:17.08 | 96917 | 116199
7 | 25:49.25 | 4:12.57 | 116200 | 135156
8 | 30:02.07 | 5:53.55 | 135157 | 161686
9 | 35:55.62 | 4:24.25 | 161687 | 181511
10 | 40:20.12 | 3:54.23 | 181512 | 199084
11 | 44:14.35 | 4:17.15 | 199085 | 218374
12 | 48:31.50 | 4:43.25 | 218375 | 239624
Характеристики диапазона извлечения и сообщения об ошибках
Выбранный диапазон
Имя файла D:\Eurodance Uncompress\!Haddaway Lossless\Albums\Haddaway - The Drive (1995-FLAC)\Haddaway - The Drive.wav
Пиковый уровень 87.1 %
Качество диапазона 100.0 %
CRC теста 841B79CE
CRC копии 841B79CE
Копирование... OK
Ошибок не произошло
AccurateRip: сводка
Трек 1 нет в базе данных
Трек 2 нет в базе данных
Трек 3 нет в базе данных
Трек 4 нет в базе данных
Трек 5 нет в базе данных
Трек 6 нет в базе данных
Трек 7 нет в базе данных
Трек 8 нет в базе данных
Трек 9 нет в базе данных
Трек 10 нет в базе данных
Трек 11 нет в базе данных
Трек 12 нет в базе данных
Ни одного трека нет в базе AccurateRip
Конец отчёта

1999 - All The Best

Треклист:
01. What Is Love (Original 7'' Mix) (4:30)
02. Life (Radio Edit) (4:16)
03. I Miss You (Radio Edit) (3:39)
04. Rock My Heart (Radio Mix) (4:10)
05. Mama's House (4:04)
06. Fly Away (Radio Edit) (4:05)
07. Stir It Up (4:26)
08. Who Do You Love (Matrix Radio Edit) (3:24)
09. Catch A Fire (Radio Edit) (4:15)
10. What About Me (Radio Version) (4:07)
11. You're Taking My Heart (DJ Stevie Steve's Radio Edit) (3:23)
12. Lover Be Thy Name (3:49)
13. Come Back (Love Has Got A Hold On Me) (3:59)
14. Shout (Album Mix) (4:36)
15. What Is Love (Todd Terry's TNT Radio Edit '99) (3:11)
16. What Is Love (Mosquito Headz Millennium 7'' Remix) (3:47)
17. In The Mix (8:05)

Отчет EAC

Exact Audio Copy V0.99 prebeta 4 from 23. January 2008
Отчёт EAC об извлечении, выполненном 22. января 2009, 19:45
Haddaway / All The Best
Дисковод: PLEXTOR DVDR PX-755A Adapter: 0 ID: 0
Режим чтения : Достоверность
Использование точного потока : Да
Отключение кэша аудио : Да
Использование указателей C2 : Нет
Коррекция смещения при чтении : 30
Способность читать области Lead-in и Lead-out : Нет
Заполнение пропущенных сэмплов тишиной : Да
Удаление блоков с тишиной в начале и конце : Нет
При вычислениях CRC использовались нулевые сэмплы : Да
Интерфейс : Установленный внешний ASPI-интерфейс
Выходной формат : Внутренние WAV-операции
Формат сэмплов : 44.100 Гц; 16 бит; стерео
TOC извлечённого CD
Трек | Старт | Длительность | Начальный сектор | Конечный сектор
---------------------------------------------------------------------
1 | 0:00.00 | 4:29.65 | 0 | 20239
2 | 4:29.65 | 4:16.35 | 20240 | 39474
3 | 8:46.25 | 3:39.25 | 39475 | 55924
4 | 12:25.50 | 4:10.00 | 55925 | 74674
5 | 16:35.50 | 4:04.25 | 74675 | 92999
6 | 20:40.00 | 4:05.25 | 93000 | 111399
7 | 24:45.25 | 4:25.50 | 111400 | 131324
8 | 29:11.00 | 3:23.55 | 131325 | 146604
9 | 32:34.55 | 4:14.45 | 146605 | 165699
10 | 36:49.25 | 4:07.30 | 165700 | 184254
11 | 40:56.55 | 3:23.10 | 184255 | 199489
12 | 44:19.65 | 3:49.35 | 199490 | 216699
13 | 48:09.25 | 3:59.18 | 216700 | 234642
14 | 52:08.43 | 4:35.57 | 234643 | 255324
15 | 56:44.25 | 3:10.68 | 255325 | 269642
16 | 59:55.18 | 3:47.25 | 269643 | 286692
17 | 63:42.43 | 8:05.32 | 286693 | 323099
Характеристики диапазона извлечения и сообщения об ошибках
Выбранный диапазон
Имя файла D:\Eurodance Uncompress\!Haddaway Lossless\Albums\Haddaway - All The Best (1999-FLAC)\Haddaway - All The Best.wav
Пиковый уровень 99.0 %
Качество диапазона 100.0 %
CRC теста 984738A4
CRC копии 984738A4
Копирование... OK
Ошибок не произошло
AccurateRip: сводка
Трек 1 нет в базе данных
Трек 2 нет в базе данных
Трек 3 нет в базе данных
Трек 4 нет в базе данных
Трек 5 нет в базе данных
Трек 6 нет в базе данных
Трек 7 нет в базе данных
Трек 8 нет в базе данных
Трек 9 нет в базе данных
Трек 10 нет в базе данных
Трек 11 нет в базе данных
Трек 12 нет в базе данных
Трек 13 нет в базе данных
Трек 14 нет в базе данных
Трек 15 нет в базе данных
Трек 16 нет в базе данных
Трек 17 нет в базе данных
Ни одного трека нет в базе AccurateRip
Конец отчёта
Singles

1992 - What Is Love CDM

Треклист:
01. What Is Love (7'' Mix) (4:31)
02. What Is Love (12'' Mix) (6:42)
03. What Is Love (Club Mix) (5:02)
04. Sing About Love (4:41)

Отчет EAC

Exact Audio Copy V0.99 prebeta 4 from 23. January 2008
Отчёт EAC об извлечении, выполненном 22. января 2009, 18:25
Haddaway / What Is Love CDM
Дисковод: PLEXTOR DVDR PX-755A Adapter: 0 ID: 0
Режим чтения : Достоверность
Использование точного потока : Да
Отключение кэша аудио : Да
Использование указателей C2 : Нет
Коррекция смещения при чтении : 30
Способность читать области Lead-in и Lead-out : Нет
Заполнение пропущенных сэмплов тишиной : Да
Удаление блоков с тишиной в начале и конце : Нет
При вычислениях CRC использовались нулевые сэмплы : Да
Интерфейс : Установленный внешний ASPI-интерфейс
Выходной формат : Внутренние WAV-операции
Формат сэмплов : 44.100 Гц; 16 бит; стерео
TOC извлечённого CD
Трек | Старт | Длительность | Начальный сектор | Конечный сектор
---------------------------------------------------------------------
1 | 0:00.33 | 4:31.07 | 33 | 20364
2 | 4:31.40 | 6:42.18 | 20365 | 50532
3 | 11:13.58 | 5:02.00 | 50533 | 73182
4 | 16:15.58 | 4:40.62 | 73183 | 94244
Характеристики диапазона извлечения и сообщения об ошибках
Выбранный диапазон
Имя файла D:\Eurodance Uncompress\!Haddaway Lossless\Singles\Haddaway - What Is Love (CDM-1992-FLAC-aZo)\Haddaway - What Is Love CDM.wav
Пиковый уровень 100.0 %
Качество диапазона 100.0 %
CRC теста 00AC4E20
CRC копии 00AC4E20
Копирование... OK
Ошибок не произошло
AccurateRip: сводка
Трек 1 точное извлечение (доверие 26) [C9044ACB]
Трек 2 точное извлечение (доверие 21) [BD68DBC7]
Трек 3 точное извлечение (доверие 22) [C55B28EC]
Трек 4 точное извлечение (доверие 20) [6144091F]
Все треки извлечены точно
Конец отчёта

1993 - Life CDM

Треклист:
01. Life (Radio Edit) (4:18)
02. Life (12'' Mix) (5:54)
03. Life (Club Life) (6:13)

Отчет EAC

Exact Audio Copy V0.99 prebeta 4 from 23. January 2008
Отчёт EAC об извлечении, выполненном 22. января 2009, 18:42
Haddaway / Life CDM
Дисковод: PLEXTOR DVDR PX-755A Adapter: 0 ID: 0
Режим чтения : Достоверность
Использование точного потока : Да
Отключение кэша аудио : Да
Использование указателей C2 : Нет
Коррекция смещения при чтении : 30
Способность читать области Lead-in и Lead-out : Нет
Заполнение пропущенных сэмплов тишиной : Да
Удаление блоков с тишиной в начале и конце : Нет
При вычислениях CRC использовались нулевые сэмплы : Да
Интерфейс : Установленный внешний ASPI-интерфейс
Выходной формат : Внутренние WAV-операции
Формат сэмплов : 44.100 Гц; 16 бит; стерео
TOC извлечённого CD
Трек | Старт | Длительность | Начальный сектор | Конечный сектор
---------------------------------------------------------------------
1 | 0:00.33 | 4:18.10 | 33 | 19392
2 | 4:18.43 | 5:54.05 | 19393 | 45947
3 | 10:12.48 | 6:13.22 | 45948 | 73944
Характеристики диапазона извлечения и сообщения об ошибках
Выбранный диапазон
Имя файла D:\Eurodance Uncompress\!Haddaway Lossless\Singles\Haddaway - Life (CDM-1993-FLAC-aZo)\Haddaway - Life CDM.wav
Пиковый уровень 100.0 %
Качество диапазона 100.0 %
CRC теста C2C05021
CRC копии C2C05021
Копирование... OK
Ошибок не произошло
AccurateRip: сводка
Трек 1 точное извлечение (доверие 23) [AAE9CE4D]
Трек 2 точное извлечение (доверие 23) [F7C73F64]
Трек 3 точное извлечение (доверие 22) [A534619D]
Все треки извлечены точно
Конец отчёта

1995 - Fly Away CDM

Треклист:
01. Fly Away (Radio Edit) (4:07)
02. Fly Away (Extended Version) (6:46)
03. Fly Away (Hyper Space Mix) (6:25)
04. Fly Away (Maxi-Flight-Remix) (5:28)
05. Fly Away (Development Corporation Mix) (6:50)

Отчет EAC

Exact Audio Copy V0.99 prebeta 4 from 23. January 2008
Отчёт EAC об извлечении, выполненном 15. февраля 2009, 17:39
Haddaway / Fly Away CDM
Дисковод: PLEXTOR DVDR PX-755A Adapter: 0 ID: 0
Режим чтения : Достоверность
Использование точного потока : Да
Отключение кэша аудио : Да
Использование указателей C2 : Нет
Коррекция смещения при чтении : 30
Способность читать области Lead-in и Lead-out : Нет
Заполнение пропущенных сэмплов тишиной : Да
Удаление блоков с тишиной в начале и конце : Нет
При вычислениях CRC использовались нулевые сэмплы : Да
Интерфейс : Установленный внешний ASPI-интерфейс
Выходной формат : Внутренние WAV-операции
Формат сэмплов : 44.100 Гц; 16 бит; стерео
TOC извлечённого CD
Трек | Старт | Длительность | Начальный сектор | Конечный сектор
---------------------------------------------------------------------
1 | 0:00.32 | 4:06.50 | 32 | 18531
2 | 4:07.07 | 6:46.08 | 18532 | 48989
3 | 10:53.15 | 6:24.55 | 48990 | 77844
4 | 17:17.70 | 5:27.50 | 77845 | 102419
5 | 22:45.45 | 6:50.12 | 102420 | 133181
Характеристики диапазона извлечения и сообщения об ошибках
Выбранный диапазон
Имя файла D:\ed lossless\hadd-flyaway-cdm\Haddaway - Fly Away CDM.wav
Пиковый уровень 100.0 %
Качество диапазона 100.0 %
CRC теста 4EF0A6A0
CRC копии 4EF0A6A0
Копирование... OK
Ошибок не произошло
AccurateRip: сводка
Трек 1 точное извлечение (доверие 6) [E624CD87]
Трек 2 точное извлечение (доверие 6) [50297EB7]
Трек 3 точное извлечение (доверие 6) [E2290BC8]
Трек 4 точное извлечение (доверие 6) [6D855F6A]
Трек 5 точное извлечение (доверие 6) [39508915]
Все треки извлечены точно
Конец отчёта
--
"Mario-os" release style ®
[Profile]  [PM] 
Display posts:    
Reply to topic

Current time is: 05-Mar 17:48

All times are UTC + 2



You cannot post new topics in this forum
You cannot reply to topics in this forum
You cannot edit your posts in this forum
You cannot delete your posts in this forum
You cannot vote in polls in this forum
You cannot attach files in this forum
You cannot download files in this forum