Хитмэн: Агент 47 / Hitman: Agent 47 (Александр Бах) [2015, Боевик, фантастика, триллер , BD-Remux 1080p] [DD5.1] [Dub Rus , Ukr]+[Eng]+[Sub Rus , Ukr , Eng]

Reply to topic
 
Author
Message

Враг Нароода ®

Gender: Unknown

Longevity: 4 years 7 months

Posts: 315

Reputation: 1 [+] [-]

Враг Нароода · Post 21-Nov-2015 15:48

[Quote] 

-- Хитмэн: Агент 47 / Hitman: Agent 47 -- --Год выпуска: 2015
Выпущено: Германия, США, Twentieth Century Fox Film Corporation, TSG Entertainment, Fox International Productions
Жанр: Боевик, фантастика, триллер
Продолжительность: 01:36:12
Озвучка # 1 :Русский : - [Дубляж, Лицензия ]
Озвучка # 2 :Украинский: [ Дубляж]
Озвучка # 3 :Английский : - Оригинал
Субтитры: Russian , English , Ukrainian -- --Режиссер: Александр Бах--В ролях: Руперт Френд, Ханна Уэр, Закари Куинто, Анджела Бейби, Томас Кречман, Дэн Баккедаль, Шарлин Бек, Михаэль Борнхюттер, Мелисса Бротон, Нильс Брункхорст, Михаэлла Каспар, Элвин Чан, Майкл Коркоран, Мануэль Депта, Эндрю Ди Бартоломео, Георг Эбиналь, Йорг Эллмер, Вайе Леон Го, Маттиас Гюнтер, Джесси Хергт, Киаран Хайндс, Джерри Хоффманн, Флориан Хотц-- Настали времена, когда генная инженерия позволяет вырастить любого человека с абсолютными показателями. Сила, скорость, меткость или слух: все это можно специально запланировать при создании нового человека. 47 — это две последние цифры на его татуировке в виде штрихкода на шее. Он — кульминация исследований в течение десятилетий и лучший из 46 предыдущих версий убийц. Его цель — мегакорпорация, которая планирует узнать тайну Агента 47 и создать армию его клонов-киллеров, превосходящих силу оригинала. Объединившись с женщиной, которая умеет хранить секреты, Агенту 47 предстоит выяснить шокирующую правду своего происхождения и приготовиться к эпической битве с заклятым врагом.-- --Качество : BD-Remux (1080p)
Формат: MKV
Видео кодек: H264
Видео: 25,8Мбит/сек,1920х1080(16/9),в23.976кадр/сек,AVC(High@L4.1)(CABAC/4Ref Frames)
Аудио Кодек:AC3
Аудио #1:AC3 , 640 Kbps, 48.0 KHz, 6 ch- -Русский - [ Дубляж]
Аудио #2: AC3, 640 Kbps, 48.0 KHz, 6 ch - -Украинский - [ Дубляж]
Аудио #3: AC3, 640 Kbps, 48.0 KHz, 6 ch - - Английский - Оригинал--

MediaInfo

Общее
Уникальный идентификатор : 205205687662313457393713344039767689563 (0x9A612D8869A5B826BC18E923DA22C95B)
Полное имя : F:\К ИНО\ФАНТАСТИКА\Хитмэн Агент 47\Hitman_Agent_47_2015_BD-Remux_1080p_N.B_Rus_Ukr_Eng\Hitman_Agent_47_2015_BD-Remux_1080p_N.B_Rus_Ukr_Eng.mkv
Формат : Matroska
Версия формата : Version 4 / Version 2
Размер файла : 19,0 Гбайт
Продолжительность : 1 ч. 36 м.
Режим общего битрейта : Переменный
Общий поток : 28,3 Мбит/сек
Название фильма : Hitman_Agent_47_2015_BD-Remux_1080p_N.B_Rus_Ukr_Eng
Дата кодирования : UTC 2015-11-19 18:06:13
Программа кодирования : mkvmerge v8.5.2 ('Crosses') 64bit
Библиотека кодирования : libebml v1.3.3 + libmatroska v1.4.4
DURATION : 01:36:16.832000000
NUMBER_OF_FRAMES : 180526
NUMBER_OF_BYTES : 462146560
_STATISTICS_WRITING_APP : mkvmerge v8.5.2 ('Crosses') 64bit
_STATISTICS_WRITING_DATE_UTC : 2015-11-19 18:06:13
_STATISTICS_TAGS : BPS DURATION NUMBER_OF_FRAMES NUMBER_OF_BYTES
Видео
Идентификатор : 1
Формат : AVC
Формат/Информация : Advanced Video Codec
Профиль формата : High@L4.1
Параметр CABAC формата : Да
Параметр ReFrames формата : 4 кадра
Идентификатор кодека : V_MPEG4/ISO/AVC
Продолжительность : 1 ч. 36 м.
Вид битрейта : Переменный
Битрейт : 25,8 Мбит/сек
Максимальный битрейт : 28,0 Мбит/сек
Ширина : 1920 пикселей
Высота : 1080 пикселей
Соотношение сторон : 16:9
Режим частоты кадров : Постоянный
Частота кадров : 23,976 кадра/сек
Цветовое пространство : YUV
Субдискретизация насыщенности : 4:2:0
Битовая глубина : 8 бит
Тип развёртки : Прогрессивная
Бит/(Пиксели*Кадры) : 0.519
Размер потока : 17,4 Гбайт (91%)
Default : Да
Forced : Нет
Аудио #1
Идентификатор : 7
Формат : AC-3
Формат/Информация : Audio Coding 3
Расширение режима : CM (complete main)
Параметр Endianness формата : Big
Идентификатор кодека : A_AC3
Продолжительность : 1 ч. 36 м.
Вид битрейта : Постоянный
Битрейт : 640 Кбит/сек
Каналы : 6 каналов
Расположение каналов : Front: L C R, Side: L R, LFE
Частота : 48,0 КГц
Метод сжатия : С потерями
Размер потока : 441 Мбайт (2%)
Default : Да
Forced : Нет
Аудио #2
Идентификатор : 8
Формат : AC-3
Формат/Информация : Audio Coding 3
Расширение режима : CM (complete main)
Параметр Endianness формата : Big
Идентификатор кодека : A_AC3
Продолжительность : 1 ч. 36 м.
Вид битрейта : Постоянный
Битрейт : 640 Кбит/сек
Каналы : 6 каналов
Расположение каналов : Front: L C R, Side: L R, LFE
Частота : 48,0 КГц
Метод сжатия : С потерями
Размер потока : 441 Мбайт (2%)
Default : Нет
Forced : Нет
Аудио #3
Идентификатор : 9
Формат : AC-3
Формат/Информация : Audio Coding 3
Расширение режима : CM (complete main)
Параметр Endianness формата : Big
Идентификатор кодека : A_AC3
Продолжительность : 1 ч. 36 м.
Вид битрейта : Постоянный
Битрейт : 640 Кбит/сек
Каналы : 6 каналов
Расположение каналов : Front: L C R, Side: L R, LFE
Частота : 48,0 КГц
Метод сжатия : С потерями
Размер потока : 441 Мбайт (2%)
Default : Нет
Forced : Нет
Текст #1
Идентификатор : 2
Формат : UTF-8
Идентификатор кодека : S_TEXT/UTF8
Идентификатор кодека/Информация : UTF-8 Plain Text
Язык : Russian
Default : Нет
Forced : Нет
Текст #2
Идентификатор : 3
Формат : UTF-8
Идентификатор кодека : S_TEXT/UTF8
Идентификатор кодека/Информация : UTF-8 Plain Text
Default : Нет
Forced : Нет
Текст #3
Идентификатор : 4
Формат : UTF-8
Идентификатор кодека : S_TEXT/UTF8
Идентификатор кодека/Информация : UTF-8 Plain Text
Язык : English
Default : Нет
Forced : Нет
Текст #4
Идентификатор : 5
Формат : UTF-8
Идентификатор кодека : S_TEXT/UTF8
Идентификатор кодека/Информация : UTF-8 Plain Text
Default : Да
Forced : Нет
Текст #5
Идентификатор : 6
Формат : UTF-8
Идентификатор кодека : S_TEXT/UTF8
Идентификатор кодека/Информация : UTF-8 Plain Text
Default : Нет
Forced : Нет
--

Скриншоты

-- -- -- --Релиз от: Nikolai.Baranov -- -- -- --
[Profile]  [PM] 
Display posts:    
Reply to topic

Current time is: 22-Apr 18:22

All times are UTC + 2



You cannot post new topics in this forum
You cannot reply to topics in this forum
You cannot edit your posts in this forum
You cannot delete your posts in this forum
You cannot vote in polls in this forum
You cannot attach files in this forum
You cannot download files in this forum