Пэн: Путешествие в Нетландию / Pan (Джо Райт) [2015, Фэнтези, комедия, приключения, семейный , BD-Remux 1080p] [DD5.1] [Dub Rus , Ukr , Eng]+[Sub Rus , Ukr , Eng]

Reply to topic
 
Author
Message

Враг Нароода ®

Gender: Unknown

Longevity: 4 years 7 months

Posts: 315

Reputation: 1 [+] [-]

Враг Нароода · Post 04-Jan-2016 11:23

[Quote] 

--Пэн: Путешествие в Нетландию / Pan-- --Год выпуска: 2015
Выпущено: США, Великобритания, Австралия, Warner Bros., RatPac-Dune Entertainment, Berlanti Productions
Жанр: Фэнтези, комедия, приключения, семейный
Продолжительность: 01:51:55
Озвучка # 1 :Русский : - [Дубляж, iTunes Russia ]
Озвучка # 2 :Украинский: [ Дубляж, iTunes Russia ]
Озвучка # 3 :Английский : - Оригинал
Субтитры: Russian (Forced, iTunes), Russian (iTunes), Ukrainian (Forced, iTunes), English (SDH)-- --Режиссер: Джо Райт--В ролях: Хью Джекман, Леви Миллер, Гаррет Хедлунд, Руни Мара, Адиль Ахтар, Нонсо Анози, Аманда Сайфред, Кэти Бёрк, Льюис МакДугалл, Кара Делевинь, Тхэ-чжу На, Джек Чарльз, Бронсон Уэбб, Майк Шеперд, Брайан Бовелл, Курт Эгиаван, Джимми Ви, Пол Хантер, Спенсер Уидлинг, Дин Нолан-- Питер Пэн — безграмотный лондонский сирота, в поисках матери и собственного предназначения оказавшийся в Нетландии. Здесь ему предстоит стать не кем иным, как лидером восстания местных жителей против злых пиратов, которое возглавляет капитан Черная борода. А вот вечный враг Пэна, Джеймс Крюк, окажется его союзником и вообще обаятельным, мужественным парнем с отменным чувством юмора и обеими конечностями. Заручившись поддержкой Тигровой Лилии, принцессы индейского племени, Питер и Крюк поведут недовольных обитателей волшебной страны в бой против коварных узурпаторов…-- --Качество : BD-Remux (1080p)
Формат: MKV
Видео кодек: H264
Видео: 23,9Мбит/сек,1920х1080(16/9),в23.976кадр/сек,AVC(High@L4.1)(CABAC/2Ref Frames)
Аудио Кодек:AC3
Аудио #1:AC3 , 384 Kbps, 48.0 KHz, 6 ch- -Русский - [ Дубляж, iTunes Russia]
Аудио #2:AC3 , 192 Kbps, 48.0 KHz, 2 ch - -Украинский - [ Дубляж, iTunes Russia]
Аудио #3: AC3, 640 Kbps, 48.0 KHz, 6 ch - - Английский - Оригинал--

MediaInfo

Общее
Уникальный идентификатор : 237995664184626716610072923032095009701 (0xB30C4C3165D4327DB3E5EABA75BFABA5)
Полное имя : E:\К ИНО\ФАНТАСТИКА\Пэн Путешествие в Нетландию\PAN_2015_BD-Remux_1080p_N.B_H264_DD5.1_Rus_Ukr_Eng\PAN_2015_BD-Remux_1080p_N.B_H264_DD5.1_Rus_Ukr_Eng.mkv
Формат : Matroska
Версия формата : Version 4 / Version 2
Размер файла : 19,6 Гбайт
Продолжительность : 1 ч. 51 м.
Режим общего битрейта : Переменный
Общий поток : 25,2 Мбит/сек
Название фильма : PAN_2015_BD-Remux_1080p_N.B_H264_DD5.1_Rus_Ukr_Eng
Дата кодирования : UTC 2016-01-03 21:02:29
Программа кодирования : mkvmerge v8.7.0 ('All of the above') 64bit
Библиотека кодирования : libebml v1.3.3 + libmatroska v1.4.4
Видео
Идентификатор : 1
Формат : AVC
Формат/Информация : Advanced Video Codec
Профиль формата : High@L4.1
Параметр CABAC формата : Да
Параметр ReFrames формата : 2 кадра
Параметр GOP формата : M=1, N=10
Идентификатор кодека : V_MPEG4/ISO/AVC
Продолжительность : 1 ч. 51 м.
Вид битрейта : Переменный
Битрейт : 23,9 Мбит/сек
Ширина : 1920 пикселей
Высота : 1080 пикселей
Соотношение сторон : 16:9
Режим частоты кадров : Постоянный
Частота кадров : 23,976 (24000/1001) кадра/сек
Цветовое пространство : YUV
Субдискретизация насыщенности : 4:2:0
Битовая глубина : 8 бит
Тип развёртки : Прогрессивная
Бит/(Пиксели*Кадры) : 0.481
Размер потока : 18,6 Гбайт (95%)
Default : Да
Forced : Нет
Аудио #1
Идентификатор : 6
Формат : AC-3
Формат/Информация : Audio Coding 3
Расширение режима : CM (complete main)
Параметр Endianness формата : Big
Идентификатор кодека : A_AC3
Продолжительность : 1 ч. 51 м.
Вид битрейта : Постоянный
Битрейт : 384 Кбит/сек
Каналы : 6 каналов
Расположение каналов : Front: L C R, Side: L R, LFE
Частота : 48,0 КГц
Частота кадров : 31,250 кадров/сек (1536 spf)
Метод сжатия : С потерями
Размер потока : 306 Мбайт (2%)
Язык : Russian
Default : Да
Forced : Нет
Аудио #2
Идентификатор : 7
Формат : AC-3
Формат/Информация : Audio Coding 3
Расширение режима : CM (complete main)
Параметр Endianness формата : Big
Идентификатор кодека : A_AC3
Продолжительность : 1 ч. 51 м.
Вид битрейта : Постоянный
Битрейт : 192 Кбит/сек
Каналы : 2 канала
Расположение каналов : Front: L R
Частота : 48,0 КГц
Частота кадров : 31,250 кадров/сек (1536 spf)
Метод сжатия : С потерями
Размер потока : 153 Мбайт (1%)
Язык : Ukrainian
Default : Нет
Forced : Нет
Аудио #3
Идентификатор : 8
Формат : AC-3
Формат/Информация : Audio Coding 3
Расширение режима : CM (complete main)
Параметр Endianness формата : Big
Идентификатор кодека : A_AC3
Продолжительность : 1 ч. 51 м.
Вид битрейта : Постоянный
Битрейт : 640 Кбит/сек
Каналы : 6 каналов
Расположение каналов : Front: L C R, Side: L R, LFE
Частота : 48,0 КГц
Частота кадров : 31,250 кадров/сек (1536 spf)
Метод сжатия : С потерями
Размер потока : 511 Мбайт (3%)
Язык : English
Default : Нет
Forced : Нет
Текст #1
Идентификатор : 2
Формат : PGS
Режим смешивания : zlib
Идентификатор кодека : S_HDMV/PGS
Идентификатор кодека/Информация : Picture based subtitle format used on BDs/HD-DVDs
Продолжительность : 1 ч. 41 м.
Битрейт : 243 бит/сек
Count of elements : 32
Размер потока : 181 Кбайт (0%)
Язык : Russian
Default : Да
Forced : Нет
Текст #2
Идентификатор : 3
Формат : PGS
Режим смешивания : zlib
Идентификатор кодека : S_HDMV/PGS
Идентификатор кодека/Информация : Picture based subtitle format used on BDs/HD-DVDs
Продолжительность : 1 ч. 42 м.
Битрейт : 16,5 Кбит/сек
Count of elements : 2378
Размер потока : 12,1 Мбайт (0%)
Язык : Russian
Default : Нет
Forced : Нет
Текст #3
Идентификатор : 4
Формат : PGS
Режим смешивания : zlib
Идентификатор кодека : S_HDMV/PGS
Идентификатор кодека/Информация : Picture based subtitle format used on BDs/HD-DVDs
Продолжительность : 1 ч. 50 м.
Битрейт : 9697 бит/сек
Count of elements : 2960
Размер потока : 7,69 Мбайт (0%)
Язык : English
Default : Нет
Forced : Нет
Текст #4
Идентификатор : 5
Формат : PGS
Режим смешивания : zlib
Идентификатор кодека : S_HDMV/PGS
Идентификатор кодека/Информация : Picture based subtitle format used on BDs/HD-DVDs
Продолжительность : 1 ч. 41 м.
Битрейт : 230 бит/сек
Count of elements : 32
Размер потока : 171 Кбайт (0%)
Язык : Ukrainian
Default : Нет
Forced : Нет
--

Скриншоты

-- -- -- --Релиз от: Nikolai.Baranov & PIRATIYA -- -- -- --
[Profile]  [PM] 
Display posts:    
Reply to topic

Current time is: 21-Apr 10:13

All times are UTC + 2



You cannot post new topics in this forum
You cannot reply to topics in this forum
You cannot edit your posts in this forum
You cannot delete your posts in this forum
You cannot vote in polls in this forum
You cannot attach files in this forum
You cannot download files in this forum