Иллюзия обмана 2 / Now You See Me 2 (Джон М. Чу / Jon Chu) [2016, США, Китай, Великобритания, Канада, триллер, комедия, криминал, детектив, приключения, BDRip] [US Transfer] Dub + Sub (Rus, Eng) + Original Eng

Reply to topic
 
Author
Message

Satyr ®

Gender: Unknown

Longevity: 10 years

Posts: 12852

Reputation: 54 [+] [-]

Satyr · Post 11-Sep-2016 01:20

[Quote] 

Иллюзия обмана 2 / Now You See Me 2
Страна: США, Китай, Великобритания, Канада
Жанр: боевик, триллер, комедия, криминал, детектив
Год выпуска: 2016
Продолжительность: 02:09:13
Перевод: Профессиональный (дублированный)
Cубтитры: русские, английские (внешние, srt*)
Режиссер: Джон М. Чу / Jon Chu
В ролях: Джесси Айзенберг, Марк Руффало, Вуди Харрельсон, Дэйв Франко, Дэниэл Рэдклифф, Лиззи Каплан, Джей Чоу, Санаа Лэтэн, Майкл Кейн, Морган Фриман, Дэвид Уоршофски, Тсаи Чин
Описание: «Четыре всадника», команда лучших иллюзионистов мира, снова в сборе! Их «магия» стала еще совершеннее, а враги - опаснее. На сей раз им предстоит спасти свою репутацию и вывести на чистую воду жестокого техномагната...

Автор рипа: Sem-te
Релиз от:
Качество видео: BDRip
Формат видео: AVI
Видео: 720x304 (2.37:1), 23.976 fps, XviD build 73 ~1964 kbps avg, 0.37 bit/pixel
Aудио#1: 48 kHz, AC3 Dolby Digital, 3/2 (L,C,R,l,r) + LFE ch, ~448 kbps
Аудио#2: 48 kHz, AC3 Dolby Digital, 3/2 (L,C,R,l,r) + LFE ch, ~448 kbps (отдельно)
Размер: 2236.59 Mb (1/2 DVD)

MediaInfo

General
Format : AVI
Format/Info : Audio Video Interleave
Format profile : OpenDML
File size : 2.18 GiB
Duration : 2h 9mn
Overall bit rate : 2 420 Kbps
Writing application : VirtualDubMod 1.5.10.3 | www.virtualdub-fr.org || (build 2550/release)
Writing library : VirtualDubMod build 2550/release
Video
ID : 0
Format : MPEG-4 Visual
Format profile : Advanced Simple@L5
Format settings, BVOP : 1
Format settings, QPel : No
Format settings, GMC : No warppoints
Format settings, Matrix : Custom
Codec ID : XVID
Codec ID/Hint : XviD
Duration : 2h 9mn
Bit rate : 1 960 Kbps
Width : 720 pixels
Height : 304 pixels
Display aspect ratio : 2.35:1
Frame rate : 23.976 fps
Color space : YUV
Chroma subsampling : 4:2:0
Bit depth : 8 bits
Scan type : Progressive
Compression mode : Lossy
Bits/(Pixel*Frame) : 0.373
Stream size : 1.77 GiB (81%)
Writing library : XviD 73
Audio
ID : 1
Format : AC-3
Format/Info : Audio Coding 3
Mode extension : CM (complete main)
Format settings, Endianness : Big
Codec ID : 2000
Duration : 2h 9mn
Bit rate mode : Constant
Bit rate : 448 Kbps
Channel(s) : 6 channels
Channel positions : Front: L C R, Side: L R, LFE
Sampling rate : 48.0 KHz
Bit depth : 16 bits
Compression mode : Lossy
Stream size : 414 MiB (19%)
Alignment : Split accross interleaves
Interleave, duration : 42 ms (1.00 video frame)
Interleave, preload duration : 500 ms

Скриншоты


[Profile]  [PM] 
Display posts:    
Reply to topic

Current time is: 21-Apr 10:05

All times are UTC + 2



You cannot post new topics in this forum
You cannot reply to topics in this forum
You cannot edit your posts in this forum
You cannot delete your posts in this forum
You cannot vote in polls in this forum
You cannot attach files in this forum
You cannot download files in this forum