Иллюзия обмана 2 / Now You See Me 2 (Джон М. Чу / Jon Chu) [2016, США, боевик, триллер, комедия, криминал, BDRip-AVC] (US Transfer) Dub + Original + Sub (rus, eng)

Reply to topic
 
Author
Message

Satyr ®

Gender: Unknown

Longevity: 10 years

Posts: 12852

Reputation: 54 [+] [-]

Satyr · Post 11-Sep-2016 01:20

[Quote] 

Иллюзия обмана 2 / Now You See Me 2«Вы еще ничего не видели»- Страна: США
Жанр: боевик, триллер, комедия, криминал
Год выпуска: 2016
Продолжительность: 02:09:39
Перевод: Профессиональный (дублированный)
Оригинальная аудиодорожка: английский
Cубтитры: русские (полные), английские (полные, SDH)
Навигация по главам: есть
Режиссер: Джон М. Чу / Jon Chu
В ролях: Лиззи Каплан, Дэниэл Рэдклифф, Дэйв Франко, Марк Руффало, Джесси Айзенберг, Морган Фриман, Вуди Харрельсон, Майкл Кейн
Описание: «Четыре всадника», команда лучших иллюзионистов мира, снова в сборе! Их «магия» стала еще совершеннее, а враги — опаснее. На сей раз им предстоит спасти свою репутацию и вывести на чистую воду жестокого техномагната…- -Качество видео: BDRip-AVC (исходник - BDRemux|US Transfer|NOW_YOU_SEE_ME_2_PROPER_REMUX_HDCLUB)
Формат видео: MKV
Видео: x264, 1152х480 (2.40:1), 23.976 fps, ~2443 kbps, 0.184 bit/pixel
Аудио 1: 48 kHz, AC3 Dolby Digital, 3/2 (L,C,R,l,r) + LFE ch, ~448 kbps [русский]
Аудио 2: 48 kHz, AC3 Dolby Digital, 3/2 (L,C,R,l,r) + LFE ch, ~448 kbps [английский]
Формат субтитров: softsub (SRT)

MediaInfo | x264 log

Format : Matroska
Format version : Version 4 / Version 2
File size : 3.09 GiB
Duration : 2h 9mn
Overall bit rate : 3 407 Kbps
Movie name : Иллюзия обмана 2 / Now You See Me 2 (2016) :: AFM ::
Encoded date : UTC 2016-08-31 06:45:02
Writing application : mkvmerge v8.3.0 ('Over the Horizon') 32bit
Writing library : libebml v1.3.1 + libmatroska v1.4.2
Video
ID : 1
Format : AVC
Format/Info : Advanced Video Codec
Format profile : High@L4.1
Format settings, CABAC : Yes
Format settings, ReFrames : 11 frames
Codec ID : V_MPEG4/ISO/AVC
Duration : 2h 9mn
Bit rate : 2 443 Kbps
Width : 1 152 pixels
Height : 480 pixels
Display aspect ratio : 2.40:1
Frame rate mode : Constant
Frame rate : 23.976 fps
Color space : YUV
Chroma subsampling : 4:2:0
Bit depth : 8 bits
Scan type : Progressive
Bits/(Pixel*Frame) : 0.184
Stream size : 2.21 GiB (72%)
Title : BDRip by AFM [torrentsland.com.ua]
Writing library : x264 core 148 r2705+54 9f484c1 t_mod_Custom [8-bit@all X86_64]
Encoding settings : cabac=1 / ref=11 / deblock=1:-3:-2 / analyse=0x3:0x113 / me=umh / subme=10 / psy=1 / fade_compensate=0.00 / psy_rd=1.00:0.00 / mixed_ref=1 / me_range=32 / chroma_me=1 / trellis=2 / 8x8dct=1 / cqm=0 / deadzone=21,11 / fast_pskip=0 / chroma_qp_offset=-2 / threads=6 / lookahead_threads=1 / sliced_threads=0 / nr=0 / decimate=1 / interlaced=0 / bluray_compat=0 / constrained_intra=0 / fgo=0 / bframes=13 / b_pyramid=2 / b_adapt=2 / b_bias=0 / direct=1 / weightb=1 / open_gop=0 / weightp=2 / keyint=250 / keyint_min=23 / scenecut=40 / intra_refresh=0 / rc_lookahead=40 / rc=crf / mbtree=0 / crf=19.4000 / qcomp=0.65 / qpmin=0:0:0 / qpmax=69:69:69 / qpstep=4 / vbv_maxrate=50000 / vbv_bufsize=62500 / crf_max=0.0 / nal_hrd=none / filler=0 / ip_ratio=1.32 / pb_ratio=1.28 / aq=3:0.85 / aq-sensitivity=10.00 / aq-factor=1.00:1.00:1.00 / aq2=0 / aq3=0 / zones=175744,186515,q=30
Language : English
Default : Yes
Forced : No
Audio #1
ID : 2
Format : AC-3
Format/Info : Audio Coding 3
Mode extension : CM (complete main)
Format settings, Endianness : Big
Codec ID : A_AC3
Duration : 2h 9mn
Bit rate mode : Constant
Bit rate : 448 Kbps
Channel(s) : 6 channels
Channel positions : Front: L C R, Side: L R, LFE
Sampling rate : 48.0 KHz
Compression mode : Lossy
Stream size : 415 MiB (13%)
Title : Dub, AC3 5.1 ~448 kbps
Language : Russian
Default : Yes
Forced : No
Audio #2
ID : 3
Format : AC-3
Format/Info : Audio Coding 3
Mode extension : CM (complete main)
Format settings, Endianness : Big
Codec ID : A_AC3
Duration : 2h 9mn
Bit rate mode : Constant
Bit rate : 448 Kbps
Channel(s) : 6 channels
Channel positions : Front: L C R, Side: L R, LFE
Sampling rate : 48.0 KHz
Compression mode : Lossy
Stream size : 415 MiB (13%)
Title : Original, AC3 5.1 ~448 kbps
Language : English
Default : No
Forced : No
Text #1
ID : 4
Format : UTF-8
Codec ID : S_TEXT/UTF8
Codec ID/Info : UTF-8 Plain Text
Language : Russian
Default : No
Forced : No
Text #2
ID : 5
Format : UTF-8
Codec ID : S_TEXT/UTF8
Codec ID/Info : UTF-8 Plain Text
Language : English
Default : No
Forced : No
Text #3
ID : 6
Format : UTF-8
Codec ID : S_TEXT/UTF8
Codec ID/Info : UTF-8 Plain Text
Title : SDH
Language : English
Default : No
Forced : No
Menu
00:00:00.000 : en:Chapter 1
00:07:05.132 : en:Chapter 2
00:16:03.836 : en:Chapter 3
00:25:29.568 : en:Chapter 4
00:33:16.827 : en:Chapter 5
00:39:57.643 : en:Chapter 6
00:48:07.716 : en:Chapter 7
00:53:34.710 : en:Chapter 8
01:03:53.246 : en:Chapter 9
01:14:00.560 : en:Chapter 10
01:20:23.568 : en:Chapter 11
01:26:37.399 : en:Chapter 12
01:32:37.051 : en:Chapter 13
01:38:46.837 : en:Chapter 14
01:48:13.528 : en:Chapter 15
01:54:04.921 : en:Chapter 16

x264

x264 [info]: frame I:1824 Avg QP:18.40 size: 70109
x264 [info]: frame P:38838 Avg QP:19.62 size: 27487
x264 [info]: frame B:145853 Avg QP:21.60 size: 8540
x264 [info]: consecutive B-frames: 2.0% 2.0% 6.5% 20.3% 19.8% 36.3% 5.0% 1.0% 1.1% 4.2% 0.5% 0.1% 0.3% 0.8%
x264 [info]: mb I I16..4: 4.4% 78.9% 16.7%
x264 [info]: mb P I16..4: 1.3% 10.7% 1.7% P16..4: 36.6% 28.1% 15.6% 0.0% 0.0% skip: 6.0%
x264 [info]: mb B I16..4: 0.1% 0.7% 0.2% B16..8: 41.6% 11.0% 3.3% direct: 4.8% skip:38.5% L0:44.0% L1:45.9% BI:10.1%
x264 [info]: 8x8 transform intra:77.1% inter:61.7%
x264 [info]: coded y,uvDC,uvAC intra: 83.1% 84.5% 68.4% inter: 23.7% 19.4% 4.3%
x264 [info]: i16 v,h,dc,p: 53% 17% 10% 21%
x264 [info]: i8 v,h,dc,ddl,ddr,vr,hd,vl,hu: 9% 8% 9% 10% 14% 13% 13% 11% 12%
x264 [info]: i4 v,h,dc,ddl,ddr,vr,hd,vl,hu: 10% 8% 4% 10% 15% 14% 14% 11% 13%
x264 [info]: i8c dc,h,v,p: 47% 20% 17% 16%
x264 [info]: Weighted P-Frames: Y:5.6% UV:3.4%
x264 [info]: ref P L0: 47.8% 10.5% 17.1% 6.4% 5.3% 3.6% 3.2% 1.7% 1.6% 1.3% 1.4% 0.1% 0.0%
x264 [info]: ref B L0: 73.8% 11.6% 5.7% 2.8% 2.0% 1.6% 1.2% 0.7% 0.5% 0.2%
x264 [info]: ref B L1: 94.0% 6.0%
x264 [info]: kb/s:2510.26

Скриншоты

с названием

[Profile]  [PM] 
Display posts:    
Reply to topic

Current time is: 21-Apr 10:11

All times are UTC + 2



You cannot post new topics in this forum
You cannot reply to topics in this forum
You cannot edit your posts in this forum
You cannot delete your posts in this forum
You cannot vote in polls in this forum
You cannot attach files in this forum
You cannot download files in this forum