Первый мститель: Противостояние / Captain America: Civil War (Джо Руссо / Joe Russo, Энтони Руссо / Anthony Russo) [2016, США, фантастика, боевик, триллер, приключения, BDRip-AVC] Dub + Original + Sub (rus, eng)

Reply to topic
 
Author
Message

Satyr ®

Gender: Unknown

Longevity: 10 years

Posts: 12858

Reputation: 54 [+] [-]

Satyr · Post 11-Sep-2016 01:20

[Quote] 

Первый мститель: Противостояние / Captain America: Civil War«Разделившись, мы падём»- Страна: США
Жанр: фантастика, боевик, триллер, приключения
Год выпуска: 2016
Продолжительность: 02:27:42
Перевод: Профессиональный (дублированный) (iTunes)
Оригинальная аудиодорожка: английский
Cубтитры: русские (форс., полные), английские (форс., полные, SDH)
Навигация по главам: есть
Режиссеры: Джо Руссо / Joe Russo, Энтони Руссо / Anthony Russo
В ролях: Крис Эванс, Роберт Дауни мл., Скарлетт Йоханссон, Себастьян Стэн, Энтони Маки, Дон Чидл, Джереми Реннер, Чедвик Боузман
Описание: Капитан Америка руководит Мстителями. Команда становится участниками крупномасштабного разрушительного инцидента, последствия которого скажутся на расстановке сил в мире. Правительство принимает решение: регулировать действия супергероев – всех, кто наделен особыми способностями. Введен некий акт регистрации супергеройских личностей, которых обязуют работать под началом руководства страны. Стив Роджерс категорически не согласен с новыми правилами. Новый закон для него – свидетельство ущемления правительством гражданских прав. Герой восстает против нововведений, и за ним идут его сподвижники. Тони Старк – наоборот, приветствует новые правила и возглавляет тех, кто согласен с его убеждениями. В стане Мстителей раскол, гражданская война развернется нешуточная. Тем временем Барон Земо строит свои коварные планы, рассчитывая на противоборство супергероев друг с другом, что ослабляет обе стороны…- -Качество видео: BDRip-AVC (исходник - BDRemux|CAPTAIN_AMERICA_CIVIL_WAR_REMUX_HDCLUB)
Видео: x264, 1152x482 (2.40:1), 23,976 fps, ~2035 kbps, 0.153 bit/pixel
Аудио 1: 48 kHz, AC3 Dolby Digital, 3/2 (L,C,R,l,r) + LFE ch, ~384 kbps [русский]
Аудио 2: 48 kHz, AC3 Dolby Digital, 3/2 (L,C,R,l,r) + LFE ch, ~384 kbps [английский]
Формат субтитров: softsub (SRT)

MediaInfo | x264 log

ormat : Matroska
Format version : Version 4 / Version 2
File size : 2.96 GiB
Duration : 2h 27mn
Overall bit rate : 2 860 Kbps
Movie name : Первый мститель: Противостояние / Captain America: Civil War (2016) :: AFM ::
Encoded date : UTC 2016-08-31 10:30:18
Writing application : mkvmerge v8.3.0 ('Over the Horizon') 32bit
Writing library : libebml v1.3.1 + libmatroska v1.4.2
Video
ID : 1
Format : AVC
Format/Info : Advanced Video Codec
Format profile : High@L4.1
Format settings, CABAC : Yes
Format settings, ReFrames : 10 frames
Codec ID : V_MPEG4/ISO/AVC
Duration : 2h 27mn
Bit rate : 2 035 Kbps
Width : 1 152 pixels
Height : 482 pixels
Display aspect ratio : 2.40:1
Frame rate mode : Constant
Frame rate : 23.976 fps
Color space : YUV
Chroma subsampling : 4:2:0
Bit depth : 8 bits
Scan type : Progressive
Bits/(Pixel*Frame) : 0.153
Stream size : 2.10 GiB (71%)
Title : BDRip by AFM [torrentsland.com.ua]
Writing library : x264 core 148 r2705+54 9f484c1 t_mod_Custom [8-bit@all X86_64]
Encoding settings : cabac=1 / ref=10 / deblock=1:-2:-2 / analyse=0x3:0x113 / me=umh / subme=10 / psy=1 / fade_compensate=0.00 / psy_rd=1.00:0.00 / mixed_ref=1 / me_range=32 / chroma_me=1 / trellis=2 / 8x8dct=1 / cqm=0 / deadzone=21,11 / fast_pskip=0 / chroma_qp_offset=-2 / threads=6 / lookahead_threads=1 / sliced_threads=0 / nr=0 / decimate=1 / interlaced=0 / bluray_compat=0 / constrained_intra=0 / fgo=0 / bframes=13 / b_pyramid=2 / b_adapt=2 / b_bias=0 / direct=1 / weightb=1 / open_gop=0 / weightp=2 / keyint=250 / keyint_min=23 / scenecut=40 / intra_refresh=0 / rc_lookahead=40 / rc=crf / mbtree=0 / crf=17.9000 / qcomp=0.65 / qpmin=0:0:0 / qpmax=69:69:69 / qpstep=4 / vbv_maxrate=50000 / vbv_bufsize=62500 / crf_max=0.0 / nal_hrd=none / filler=0 / ip_ratio=1.35 / pb_ratio=1.30 / aq=3:0.85 / aq-sensitivity=10.00 / aq-factor=1.00:1.00:1.00 / aq2=0 / aq3=0 / zones=201370,212841,q=30
Language : English
Default : Yes
Forced : No
Audio #1
ID : 2
Format : AC-3
Format/Info : Audio Coding 3
Mode extension : CM (complete main)
Format settings, Endianness : Big
Codec ID : A_AC3
Duration : 2h 27mn
Bit rate mode : Constant
Bit rate : 384 Kbps
Channel(s) : 6 channels
Channel positions : Front: L C R, Side: L R, LFE
Sampling rate : 48.0 KHz
Compression mode : Lossy
Stream size : 406 MiB (13%)
Title : Dub, AC3 5.1 ~384 kbps
Language : Russian
Default : Yes
Forced : No
Audio #2
ID : 3
Format : AC-3
Format/Info : Audio Coding 3
Mode extension : CM (complete main)
Format settings, Endianness : Big
Codec ID : A_AC3
Duration : 2h 27mn
Bit rate mode : Constant
Bit rate : 384 Kbps
Channel(s) : 6 channels
Channel positions : Front: L C R, Side: L R, LFE
Sampling rate : 48.0 KHz
Compression mode : Lossy
Stream size : 406 MiB (13%)
Title : Original, AC3 5.1 ~384 kbps
Language : English
Default : No
Forced : No
Text #1
ID : 4
Format : UTF-8
Codec ID : S_TEXT/UTF8
Codec ID/Info : UTF-8 Plain Text
Title : forced
Language : Russian
Default : Yes
Forced : No
Text #2
ID : 5
Format : UTF-8
Codec ID : S_TEXT/UTF8
Codec ID/Info : UTF-8 Plain Text
Language : Russian
Default : No
Forced : No
Text #3
ID : 6
Format : UTF-8
Codec ID : S_TEXT/UTF8
Codec ID/Info : UTF-8 Plain Text
Title : forced
Language : English
Default : No
Forced : No
Text #4
ID : 7
Format : UTF-8
Codec ID : S_TEXT/UTF8
Codec ID/Info : UTF-8 Plain Text
Language : English
Default : No
Forced : No
Text #5
ID : 8
Format : UTF-8
Codec ID : S_TEXT/UTF8
Codec ID/Info : UTF-8 Plain Text
Title : SDH
Language : English
Default : No
Forced : No
Menu
00:00:00.000 : en:Chapter 1
00:09:01.957 : en:Chapter 2
00:13:04.991 : en:Chapter 3
00:21:03.345 : en:Chapter 4
00:27:53.380 : en:Chapter 5
00:31:57.289 : en:Chapter 6
00:35:08.395 : en:Chapter 7
00:42:58.448 : en:Chapter 8
00:52:04.621 : en:Chapter 9
01:05:39.101 : en:Chapter 10
01:16:41.637 : en:Chapter 11
01:22:28.777 : en:Chapter 12
01:29:29.488 : en:Chapter 13
01:34:09.769 : en:Chapter 14
01:45:38.582 : en:Chapter 15
01:55:54.322 : en:Chapter 16
02:02:35.055 : en:Chapter 17
02:12:14.176 : en:Chapter 18
02:18:29.384 : en:Chapter 19

x264

x264 [info]: frame I:1841 Avg QP:15.82 size: 59695
x264 [info]: frame P:48355 Avg QP:17.06 size: 23323
x264 [info]: frame B:162645 Avg QP:19.78 size: 6586
x264 [info]: consecutive B-frames: 3.6% 3.6% 9.0% 16.1% 16.4% 35.6% 6.1% 4.5% 1.8% 0.8% 0.7% 0.3% 0.4% 1.1%
x264 [info]: mb I I16..4: 5.9% 75.1% 19.0%
x264 [info]: mb P I16..4: 1.7% 15.7% 3.1% P16..4: 35.3% 26.7% 12.5% 0.0% 0.0% skip: 5.0%
x264 [info]: mb B I16..4: 0.1% 1.2% 0.3% B16..8: 39.5% 12.2% 2.5% direct: 3.8% skip:40.3% L0:44.4% L1:45.2% BI:10.4%
x264 [info]: 8x8 transform intra:75.4% inter:66.7%
x264 [info]: coded y,uvDC,uvAC intra: 81.4% 75.0% 50.0% inter: 17.9% 13.1% 2.3%
x264 [info]: i16 v,h,dc,p: 24% 17% 6% 53%
x264 [info]: i8 v,h,dc,ddl,ddr,vr,hd,vl,hu: 16% 11% 7% 8% 11% 11% 12% 10% 13%
x264 [info]: i4 v,h,dc,ddl,ddr,vr,hd,vl,hu: 21% 10% 3% 8% 13% 12% 12% 9% 11%
x264 [info]: i8c dc,h,v,p: 34% 32% 20% 13%
x264 [info]: Weighted P-Frames: Y:3.6% UV:1.8%
x264 [info]: ref P L0: 51.1% 10.1% 16.1% 6.3% 5.0% 3.5% 3.1% 1.7% 1.6% 1.4% 0.1% 0.0%
x264 [info]: ref B L0: 74.3% 11.6% 5.7% 2.9% 2.0% 1.6% 1.2% 0.6% 0.2%
x264 [info]: ref B L1: 93.9% 6.1%
x264 [info]: kb/s:2080.77

Скриншоты

с названием

[Profile]  [PM] 
Display posts:    
Reply to topic

Current time is: 22-Apr 18:32

All times are UTC + 2



You cannot post new topics in this forum
You cannot reply to topics in this forum
You cannot edit your posts in this forum
You cannot delete your posts in this forum
You cannot vote in polls in this forum
You cannot attach files in this forum
You cannot download files in this forum