Большой Босс / The Boss (Бен Фэлкоун / Ben Falcone) [2016, США, комедия, BDRip] [Theatrical Cut] Dub + Original Eng + sub

Reply to topic
 
Author
Message

Satyr ®

Gender: Unknown

Longevity: 10 years

Posts: 12852

Reputation: 54 [+] [-]

Satyr · Post 11-Sep-2016 01:21

[Quote] 

Большой Босс / The Boss [Theatrical Cut]- Год выпуска: 2016
Выпущено: США
Жанр: комедия
Продолжительность: 01:38:48
Перевод: Профессиональный (полное дублирование) BD EUR
+ Оригинальная звуковая дорожка
Субтитры: Русские (полные, форсированные), украинские (полные), английские (полные, SDH, SDH цветные) (внешние, srt*)-Режиссер: Бен Фэлкоун / Ben Falcone
В ролях: Мелисса МакКарти, Кристен Белл, Питер Динклэйдж, Элла Андерсон, Тайлер Лабин, Кэти Бейтс, Сесили Стронг, Мэри Сон, Кристен Шаал, Эва Питерсон
О фильме: В центре сюжета бизнес-леди, промышленный магнат, очутившаяся в тюрьме, погорев на теневых сделках. Отсидев положенное, женщина мечтает искупить вину и сменить статус мошенницы на всеобщую любимицу, только не все жертвы ее махинаций готовы пересмотреть свое отношение к ней.
Релиз:
Автор: Elheym
Качество: BDRip (источник: / Blu-ray EUR [THE_BOSS_HDCLUB] / 1080p)
Формат: AVI
Видео: 704x384 (1.83:1), 23.976 fps, XviD build 67 ~2258 kbps avg, 0.35 bit/pixel
Аудио #1: 48 kHz, AC3 Dolby Digital, 3/2 (L,C,R,l,r) + LFE ch, ~448.00 kbps avg rus
Аудио #2: 48 kHz, AC3 Dolby Digital, 3/2 (L,C,R,l,r) + LFE ch, ~448.00 kbps avg eng
Размер: 2234.14 Mb (1/2 DVD)
Скачать: Семпл-

Кадры из фильма


-

Mi

Формат : AVI
Формат/Информация : Audio Video Interleave
Профиль формата : OpenDML
Размер файла : 2,18 Гбайт
Продолжительность : 1 ч. 38 м.
Общий поток : 3161 Кбит/сек
Название фильма : Большой Босс / The Boss [Theatrical Cut] (2016) BDRip
Режиссёр : Elheym
Программа кодирования : VirtualDubMod 1.5.10.2 (build 2540/release)
Правообладатель : HQCLUB
Примечание : 23.08.2016
Видео
Идентификатор : 0
Формат : MPEG-4 Visual
Профиль формата : Advanced Simple@L5
Параметр BVOP формата : 1
Параметр QPel формата : Нет
Параметр GMC формата : Без точки перехода
Параметр матрицы формата : Выборочная
Идентификатор кодека : XVID
Идентификатор кодека/Подсказка : XviD
Продолжительность : 1 ч. 38 м.
Битрейт : 2247 Кбит/сек
Ширина : 704 пикселя
Высота : 384 пикселя
Соотношение сторон : 1,85:1
Частота кадров : 23,976 кадра/сек
Цветовое пространство : YUV
Субдискретизация насыщенности : 4:2:0
Битовая глубина : 8 бит
Тип развёртки : Прогрессивная
Метод сжатия : С потерями
Бит/(Пиксели*Кадры) : 0.347
Размер потока : 1,55 Гбайт (71%)
Библиотека кодирования : XviD 67
Аудио #1
Идентификатор : 1
Формат : AC-3
Формат/Информация : Audio Coding 3
Расширение режима : CM (complete main)
Параметр Endianness формата : Big
Идентификатор кодека : 2000
Продолжительность : 1 ч. 38 м.
Вид битрейта : Постоянный
Битрейт : 448 Кбит/сек
Каналы : 6 каналов
Расположение каналов : Front: L C R, Side: L R, LFE
Частота : 48,0 КГц
Битовая глубина : 16 бит
Метод сжатия : С потерями
Размер потока : 317 Мбайт (14%)
Выравнивание : Разделение по промежуткам
Продолжительность промежутка : 42 мс. (1,00 видеокадр)
Время предзагрузки промежутка : 500 мс.
Аудио #2
Идентификатор : 2
Формат : AC-3
Формат/Информация : Audio Coding 3
Расширение режима : CM (complete main)
Параметр Endianness формата : Big
Идентификатор кодека : 2000
Продолжительность : 1 ч. 38 м.
Вид битрейта : Постоянный
Битрейт : 448 Кбит/сек
Каналы : 6 каналов
Расположение каналов : Front: L C R, Side: L R, LFE
Частота : 48,0 КГц
Битовая глубина : 16 бит
Метод сжатия : С потерями
Размер потока : 317 Мбайт (14%)
Выравнивание : Разделение по промежуткам
Продолжительность промежутка : 42 мс. (1,00 видеокадр)
Время предзагрузки промежутка : 500 мс.
-
[Profile]  [PM] 
Display posts:    
Reply to topic

Current time is: 21-Apr 10:31

All times are UTC + 2



You cannot post new topics in this forum
You cannot reply to topics in this forum
You cannot edit your posts in this forum
You cannot delete your posts in this forum
You cannot vote in polls in this forum
You cannot attach files in this forum
You cannot download files in this forum