Миссия в Майами / Ride Along 2 (Тим Стори / Tim Story) [2016, США, боевик, комедия, BDRip-AVC] Dub + Sub Rus

Reply to topic
 
Author
Message

Satyr ®

Gender: Unknown

Longevity: 10 years

Posts: 12852

Reputation: 54 [+] [-]

Satyr · Post 11-Sep-2016 01:21

[Quote] 

Миссия в Майами / Ride Along 2
Страна: США
Жанр: боевик, комедия
Год выпуска: 2016
Продолжительность: 01:41:30
Перевод: Профессиональный (дублированный) Blu-ray CEE
Cубтитры: русские (полные + форс.)
Навигация по главам: есть
Режиссер: Тим Стори / Tim Story
В ролях: Айс Кьюб (James Payton), Кевин Харт (Ben Barber), Тика Самптер (Angela Payton), Бенджамин Брэтт (Antonio Pope), Оливия Манн (Maya), Кен Жонг (AJ), Брюс МакГилл (Lt. Brooks), Майкл Эдвард Роуз (The Hitter / Gates), Шерри Шеперд (Cori), Артуро дель Пуэрто (Alonso), Эрик Гойнс (Assface), Карлос Гомес (Captain Hernandez)
Описание: Накануне собственной свадьбы Бен отправляется с братом своей будущей жены, крутым полицейским Джеймсом, в Майами, чтобы схватить наркодельца.
Сэмпл: http://multi-up.com/1114511
Релиз группы: HELLYWOOD, автор - potroks
Качество видео: BDRip-AVC (источник: /Blu-ray Remux /1080p)
Формат видео: MKV
Видео: AVC, 984x410 (2.40:1), 1612 kbps, 23,976 fps, 0,167 bpp
Аудио: русский / AC3 / 5.1 / 48 kHz / 448 kbps / 16 bit

MediaInfo

Общее
Уникальный идентификатор : 209376405198580431485506578632900796626 (0x9D846DC89708B07BAFCFDCE68CAEE0D2)
Полное имя : E:\Zona Downloads\Missiya.v.Mayami.2016.RUS.BDRip..mkv
Формат : Matroska
Версия формата : Version 4 / Version 2
Размер файла : 1,46 Гбайт
Продолжительность : 1 ч. 41 м.
Общий поток : 2062 Кбит/сек
Название фильма : Ride Along 2 (2016)
Дата кодирования : UTC 2016-08-20 10:48:48
Программа кодирования : mkvmerge v5.9.0 ('On The Loose') built on Dec 15 2012 16:39:58
Библиотека кодирования : libebml v1.3.0 + libmatroska v1.4.0
Видео
Идентификатор : 1
Формат : AVC
Формат/Информация : Advanced Video Codec
Профиль формата : High@L4.1
Параметр CABAC формата : Да
Параметр ReFrames формата : 12 кадров
Идентификатор кодека : V_MPEG4/ISO/AVC
Продолжительность : 1 ч. 41 м.
Битрейт : 1612 Кбит/сек
Ширина : 984 пикселя
Высота : 410 пикселей
Соотношение сторон : 2,40:1
Режим частоты кадров : Постоянный
Частота кадров : 23,976 кадра/сек
Цветовое пространство : YUV
Субдискретизация насыщенности : 4:2:0
Битовая глубина : 8 бит
Тип развёртки : Прогрессивная
Бит/(Пиксели*Кадры) : 0.167
Размер потока : 1,12 Гбайт (76%)
Заголовок : potroks
Библиотека кодирования : x264 core 146 r2538 121396c
Настройки программы : cabac=1 / ref=12 / deblock=1:-2:-2 / analyse=0x3:0x113 / me=umh / subme=11 / psy=1 / psy_rd=1.05:0.10 / mixed_ref=1 / me_range=48 / chroma_me=1 / trellis=2 / 8x8dct=1 / cqm=0 / deadzone=21,11 / fast_pskip=0 / chroma_qp_offset=-3 / threads=9 / lookahead_threads=2 / sliced_threads=0 / nr=0 / decimate=0 / interlaced=0 / bluray_compat=0 / constrained_intra=0 / bframes=13 / b_pyramid=2 / b_adapt=2 / b_bias=0 / direct=3 / weightb=1 / open_gop=0 / weightp=2 / keyint=240 / keyint_min=23 / scenecut=40 / intra_refresh=0 / rc_lookahead=60 / rc=2pass / mbtree=0 / bitrate=1612 / ratetol=1.0 / qcomp=0.70 / qpmin=0 / qpmax=69 / qpstep=4 / cplxblur=20.0 / qblur=0.5 / vbv_maxrate=14000 / vbv_bufsize=14000 / nal_hrd=none / filler=0 / ip_ratio=1.40 / pb_ratio=1.30 / aq=1:0.80
Язык : English
Default : Да
Forced : Нет
Аудио
Идентификатор : 2
Формат : AC-3
Формат/Информация : Audio Coding 3
Расширение режима : CM (complete main)
Параметр Endianness формата : Big
Идентификатор кодека : A_AC3
Продолжительность : 1 ч. 41 м.
Вид битрейта : Постоянный
Битрейт : 448 Кбит/сек
Каналы : 6 каналов
Расположение каналов : Front: L C R, Side: L R, LFE
Частота : 48,0 КГц
Частота кадров : 31,250 кадров/сек (1536 spf)
Метод сжатия : С потерями
Размер потока : 325 Мбайт (22%)
Заголовок : Dub | DD 5.1 @ 448 kbps - Blu-ray CEE
Язык : Russian
Default : Да
Forced : Нет
Текст #1
Идентификатор : 3
Формат : UTF-8
Идентификатор кодека : S_TEXT/UTF8
Идентификатор кодека/Информация : UTF-8 Plain Text
Заголовок : Forced
Язык : Russian
Default : Да
Forced : Нет
Текст #2
Идентификатор : 4
Формат : UTF-8
Идентификатор кодека : S_TEXT/UTF8
Идентификатор кодека/Информация : UTF-8 Plain Text
Заголовок : Blu-ray CEE
Язык : Russian
Default : Нет
Forced : Нет
Меню
00:00:00.000 : en:Chapter 01
00:03:29.375 : en:Chapter 02
00:10:26.709 : en:Chapter 03
00:14:00.089 : en:Chapter 04
00:17:21.040 : en:Chapter 05
00:22:33.268 : en:Chapter 06
00:27:48.875 : en:Chapter 07
00:34:33.529 : en:Chapter 08
00:39:25.905 : en:Chapter 09
00:42:26.001 : en:Chapter 10
00:46:06.013 : en:Chapter 11
00:50:51.173 : en:Chapter 12
00:56:40.772 : en:Chapter 13
01:00:04.726 : en:Chapter 14
01:06:57.680 : en:Chapter 15
01:13:09.051 : en:Chapter 16
01:19:35.395 : en:Chapter 17
01:23:06.731 : en:Chapter 18
01:31:20.141 : en:Chapter 19
01:36:58.813 : en:Chapter 20

Скриншот c названием фильма

Скриншоты

[Profile]  [PM] 
Display posts:    
Reply to topic

Current time is: 21-Apr 11:10

All times are UTC + 2



You cannot post new topics in this forum
You cannot reply to topics in this forum
You cannot edit your posts in this forum
You cannot delete your posts in this forum
You cannot vote in polls in this forum
You cannot attach files in this forum
You cannot download files in this forum