Финансовый монстр / Money Monster (Джоди Фостер / Jodie Foster) [2016, США, триллер, драма, криминал, BDRip-AVC] Dub + Sub (rus, eng)

Reply to topic
 
Author
Message

Satyr ®

Gender: Unknown

Longevity: 10 years

Posts: 12852

Reputation: 54 [+] [-]

Satyr · Post 11-Sep-2016 01:21

[Quote] 

Финансовый монстр / Money Monster«Not every conspiracy is a theory»- Страна: США
Жанр: триллер, драма, криминал
Год выпуска: 2016
Продолжительность: 01:38:40
Перевод: Профессиональный (дублированный) (iTunes)
Оригинальная аудиодорожка: нет
Cубтитры: русские (форс.), английские (полные)
Навигация по главам: есть
Режиссеры: Джоди Фостер / Jodie Foster
В ролях: Джордж Клуни, Джулия Робертс, Джек О'Коннелл, Доминик Уэст, Катрина Балф, Джанкарло Эспозито, Кристофер Денэм, Ленни Венито, Кристофер Бауэр, Деннис Буцикарис
Описание: Сюжет фильма разворачивается вокруг Ли Гейтса, известного телеведущего, чьи финансовые советы сделали его настоящим гуру Уолл-Стрит. Один из зрителей шоу, воспользовавшись неудачным советом Ли, потерял все свое состояние и теперь хочет возмездия. Он берет знаменитость в заложники и тем самым поднимает рейтинги передачи, люди замерли перед экранами в ожидании ответа на вопрос: сколько стоит человеческая жизнь?- -Качество видео: BDRip-AVC (исходник - BDRemux|Money.Monster.2016.REMUX.1080p.BluRay.1080p.AVC.DTS-HD.MA.5.1-iFT)
Формат видео: MKV
Видео: x264, 1040x436 (2.40:1), 23,976 fps, ~1740 kbps, 0.160 bit/pixel
Аудио: 48 kHz, AC3 Dolby Digital, 3/2 (L,C,R,l,r) + LFE ch, ~384 kbps
Формат субтитров: softsub (SRT)

MediaInfo

Format : Matroska
Format version : Version 4 / Version 2
File size : 1.46 GiB
Duration : 1h 38mn
Overall bit rate : 2 126 Kbps
Movie name : Финансовый монстр / Money Monster (2016) :: AFM ::
Encoded date : UTC 2016-08-18 15:55:50
Writing application : mkvmerge v8.3.0 ('Over the Horizon') 32bit
Writing library : libebml v1.3.1 + libmatroska v1.4.2
Video
ID : 1
Format : AVC
Format/Info : Advanced Video Codec
Format profile : High@L4.1
Format settings, CABAC : Yes
Format settings, ReFrames : 10 frames
Codec ID : V_MPEG4/ISO/AVC
Duration : 1h 38mn
Bit rate : 1 740 Kbps
Width : 1 040 pixels
Height : 436 pixels
Display aspect ratio : 2.40:1
Frame rate mode : Constant
Frame rate : 23.976 fps
Color space : YUV
Chroma subsampling : 4:2:0
Bit depth : 8 bits
Scan type : Progressive
Bits/(Pixel*Frame) : 0.160
Stream size : 1.17 GiB (80%)
Title : BDRip by AFM [torrentsland.com.ua]
Writing library : x264 core 148 r2705+54 9f484c1 t_mod_Custom [8-bit@all X86_64]
Encoding settings : cabac=1 / ref=10 / deblock=1:-2:-2 / analyse=0x3:0x113 / me=umh / subme=10 / psy=1 / fade_compensate=0.00 / psy_rd=1.00:0.00 / mixed_ref=1 / me_range=32 / chroma_me=1 / trellis=2 / 8x8dct=1 / cqm=0 / deadzone=21,11 / fast_pskip=0 / chroma_qp_offset=-2 / threads=6 / lookahead_threads=1 / sliced_threads=0 / nr=0 / decimate=0 / interlaced=0 / bluray_compat=0 / constrained_intra=0 / fgo=0 / bframes=12 / b_pyramid=2 / b_adapt=2 / b_bias=0 / direct=3 / weightb=1 / open_gop=0 / weightp=2 / keyint=250 / keyint_min=23 / scenecut=40 / intra_refresh=0 / rc_lookahead=40 / rc=2pass / mbtree=0 / bitrate=1740 / ratetol=1.0 / qcomp=0.65 / qpmin=0:0:0 / qpmax=69:69:69 / qpstep=4 / cplxblur=20.0 / qblur=0.5 / vbv_maxrate=50000 / vbv_bufsize=62500 / nal_hrd=none / filler=0 / ip_ratio=1.30 / pb_ratio=1.25 / aq=3:0.80 / aq-sensitivity=10.00 / aq-factor=1.00:1.00:1.00 / aq2=0 / aq3=0
Language : English
Default : Yes
Forced : No
Audio
ID : 2
Format : AC-3
Format/Info : Audio Coding 3
Mode extension : CM (complete main)
Format settings, Endianness : Big
Codec ID : A_AC3
Duration : 1h 38mn
Bit rate mode : Constant
Bit rate : 384 Kbps
Channel(s) : 6 channels
Channel positions : Front: L C R, Side: L R, LFE
Sampling rate : 48.0 KHz
Compression mode : Lossy
Stream size : 271 MiB (18%)
Title : Dub, AC3 5.1 ~384 kbps
Language : Russian
Default : Yes
Forced : No
Text #1
ID : 3
Format : UTF-8
Codec ID : S_TEXT/UTF8
Codec ID/Info : UTF-8 Plain Text
Title : forced
Language : Russian
Default : Yes
Forced : No
Text #2
ID : 4
Format : UTF-8
Codec ID : S_TEXT/UTF8
Codec ID/Info : UTF-8 Plain Text
Language : English
Default : No
Forced : No
Menu
00:00:00.000 : en:Chapter 01
00:07:14.225 : en:Chapter 02
00:12:38.799 : en:Chapter 03
00:20:08.457 : en:Chapter 04
00:24:32.179 : en:Chapter 05
00:31:37.854 : en:Chapter 06
00:39:52.139 : en:Chapter 07
00:45:29.101 : en:Chapter 08
00:51:37.511 : en:Chapter 09
00:55:39.627 : en:Chapter 10
00:58:43.019 : en:Chapter 11
01:06:42.206 : en:Chapter 12
01:10:27.681 : en:Chapter 13
01:16:06.228 : en:Chapter 14
01:19:55.165 : en:Chapter 15
01:29:35.036 : en:Chapter 16

Скриншоты

с названием

Торрент перезалит - добавлены русские форс. субтитры.
[Profile]  [PM] 
Display posts:    
Reply to topic

Current time is: 21-Apr 10:04

All times are UTC + 2



You cannot post new topics in this forum
You cannot reply to topics in this forum
You cannot edit your posts in this forum
You cannot delete your posts in this forum
You cannot vote in polls in this forum
You cannot attach files in this forum
You cannot download files in this forum