Жертва / Sacrifice ( Питер Э. Даулинг / Peter A. Dowling ) [2016, Ирландия,Триллер, WEB-DLRip] VO (Хихикающий доктор)

Reply to topic
 
Author
Message

Satyr ®

Gender: Unknown

Longevity: 11 years

Posts: 15401

Reputation: 55 [+] [-]

Satyr · Post 11-Sep-2016 01:22

[Quote] 

Жертва / Sacrifice
Страна: Ирландия
Жанр: Триллер
Год выпуска: 2016
Продолжительность: 01:30:57
Перевод: Любительский (одноголосый закадровый) - (Хихикающий доктор)
Cубтитры: нет
Оригинальная аудиодорожка: нет
Режиссер: Питер Э. Даулинг / Peter A. Dowling
В ролях: Рада Митчелл, Руперт Грейвз, Йен МакЭлхинни, Дэвид Робб, Лайам Карни, Питер Фоллебрегт, Деклан Конлон, Леса Турман Конор Маллен, Джоэнн Кроуфорд
Описание: Консультирующий хирург Тора Гамильтон вместе с мужем Дунканом переезжает на удаленные Шетландские острова, в 100 милях от северо-восточного побережья Шотландии. На территории своего нового дома Тора находит изрезанное руническими знаками тело молодой женщины, вместо сердца у которой — дыра. Не обращая внимания на предупреждения оставить все как есть, Тора все ближе подбирается к страшнейшей легенде, которую никто и никогда не осмелился бы записать.
Сэмпл: http://multi-up.com/1113936
Качество видео: WEB-DLRip
Исходник: [Sacrifice.2016.L1.WEB-DL.720p kinozal]
Формат видео: AVI
Видео: 720x304 (2.37:1), 23.976 fps, XviD build 65 ~2093 kbps avg, 0.40 bit/pixel
Аудио RUS: 48 kHz, AC3 Dolby Digital, 2/0 (L,R) ch, ~192 kbps
Rip by Ториял для

MediaInfo

Format : AVI
Format/Info : Audio Video Interleave
File size : 1.46 GiB
Duration : 1h 30mn
Overall bit rate : 2 295 Kbps
Writing application : VirtualDubMod 1.5.10.3 | www.virtualdub-fr.org || (build 2550/release)
Writing library : VirtualDubMod build 2550/release
Video
ID : 0
Format : MPEG-4 Visual
Format profile : Advanced Simple@L5
Format settings, BVOP : 1
Format settings, QPel : No
Format settings, GMC : No warppoints
Format settings, Matrix : Custom
Codec ID : XVID
Codec ID/Hint : XviD
Duration : 1h 30mn
Bit rate : 2 094 Kbps
Width : 720 pixels
Height : 304 pixels
Display aspect ratio : 2.35:1
Frame rate : 23.976 (23976/1000) fps
Color space : YUV
Chroma subsampling : 4:2:0
Bit depth : 8 bits
Scan type : Progressive
Compression mode : Lossy
Bits/(Pixel*Frame) : 0.399
Stream size : 1.33 GiB (91%)
Writing library : XviD 65
Audio
ID : 1
Format : AC-3
Format/Info : Audio Coding 3
Mode extension : CM (complete main)
Format settings, Endianness : Big
Codec ID : 2000
Duration : 1h 30mn
Bit rate mode : Constant
Bit rate : 192 Kbps
Channel(s) : 2 channels
Channel positions : Front: L R
Sampling rate : 48.0 KHz
Frame rate : 31.250 fps (1536 spf)
Compression mode : Lossy
Stream size : 125 MiB (8%)
Alignment : Split accross interleaves
Interleave, duration : 42 ms (1.00 video frame)
Interleave, preload duratio : 500 ms

Скриншоты

[Profile]  [PM] 
Display posts:    
Reply to topic

Current time is: 27-Sep 11:22

All times are UTC + 2



You cannot post new topics in this forum
You cannot reply to topics in this forum
You cannot edit your posts in this forum
You cannot delete your posts in this forum
You cannot vote in polls in this forum
You cannot attach files in this forum
You cannot download files in this forum