Страх глубины / In the Deep (Йоханнес Робертс / Johannes Roberts) [2016, Великобритания, Триллер, DVDRip-AVC] DVO (RecentFilms) + Sub Eng + Original Eng

Reply to topic
 
Author
Message

Satyr ®

Gender: Unknown

Longevity: 10 years

Posts: 12852

Reputation: 54 [+] [-]

Satyr · Post 11-Sep-2016 01:22

[Quote] 

Страх глубины / In the Deep
Страна: Великобритания
Жанр: Триллер
Год выпуска: 2016
Продолжительность: 01:29:08
Перевод: Любительский (двухголосый закадровый) RecentFilms
Cубтитры: английские
Оригинальная аудиодорожка: английский
Режиссер: Йоханнес Робертс / Johannes Roberts
В ролях: Мэттью Модайн, Мэнди Мур, Клер Холт, Сантьяго Сегура, Яни Гельман, Крис Дж. Джонсон, Axel Mansilla
Описание: В центре сюжета — сестры Кейт и Лиза, приехавшие на отдых в Мексику. В поисках острых ощущений Кейт убеждает сестру опуститься под воду в клетке и посмотреть на белых акул. Клетка обрывается, и девушки оказываются на глубине 47 метров с запасом кислорода менее чем на час в двух часах пути от берега в окружении самых опасных морских хищников.
Сэмпл: http://multi-up.com/1113476
Качество видео: DVDRip
Формат видео: MKV
Видео: AVC, 720x304 (2,35:1), 23,976 кадра/сек, 1828 Кбит/сек
Аудио: AC3, 48,0 КГц, 2 канала, 192 Кбит/сек
Аудио 2: AC3, 48,0 КГц, 6 каналов, 384 Кбит/сек

MediaInfo

Формат : Matroska
Версия формата : Version 4 / Version 2
Размер файла : 1,50 Гбайт
Продолжительность : 1 ч. 29 м.
Общий поток : 2406 Кбит/сек
Дата кодирования : UTC 2016-08-11 19:54:35
Программа кодирования : mkvmerge v8.3.0 ('Over the Horizon') 64bit
Библиотека кодирования : libebml v1.3.1 + libmatroska v1.4.2
DURATION : 01:29:08.000000000
NUMBER_OF_FRAMES : 167125
NUMBER_OF_BYTES : 128352000
_STATISTICS_WRITING_APP : mkvmerge v8.3.0 ('Over the Horizon') 64bit
_STATISTICS_WRITING_DATE_UTC : 2016-08-11 19:54:35
_STATISTICS_TAGS : BPS DURATION NUMBER_OF_FRAMES NUMBER_OF_BYTES
Видео
Идентификатор : 1
Формат : AVC
Формат/Информация : Advanced Video Codec
Профиль формата : High@L4.1
Параметр CABAC формата : Да
Параметр ReFrames формата : 5 кадров
Идентификатор кодека : V_MPEG4/ISO/AVC
Продолжительность : 1 ч. 29 м.
Битрейт : 1828 Кбит/сек
Ширина : 720 пикселей
Высота : 304 пикселя
Соотношение сторон : 2,35:1
Режим частоты кадров : Постоянный
Частота кадров : 23,976 кадра/сек
Цветовое пространство : YUV
Субдискретизация насыщенности : 4:2:0
Битовая глубина : 8 бит
Тип развёртки : Прогрессивная
Бит/(Пиксели*Кадры) : 0.348
Размер потока : 1,11 Гбайт (74%)
Заголовок : In the Deep (2016) DVDRip
Библиотека кодирования : x264 core 148 r2638 7599210
Настройки программы : cabac=1 / ref=5 / deblock=1:-3:-3 / analyse=0x3:0x113 / me=umh / subme=7 / psy=1 / psy_rd=1.00:0.00 / mixed_ref=1 / me_range=24 / chroma_me=1 / trellis=1 / 8x8dct=1 / cqm=0 / deadzone=21,11 / fast_pskip=1 / chroma_qp_offset=-2 / threads=9 / lookahead_threads=1 / sliced_threads=0 / nr=0 / decimate=1 / interlaced=0 / bluray_compat=0 / constrained_intra=0 / bframes=3 / b_pyramid=2 / b_adapt=2 / b_bias=0 / direct=1 / weightb=1 / open_gop=0 / weightp=2 / keyint=240 / keyint_min=23 / scenecut=40 / intra_refresh=0 / rc_lookahead=40 / rc=2pass / mbtree=1 / bitrate=1828 / ratetol=1.0 / qcomp=0.60 / qpmin=0 / qpmax=69 / qpstep=4 / cplxblur=20.0 / qblur=0.5 / vbv_maxrate=62500 / vbv_bufsize=78125 / nal_hrd=none / filler=0 / ip_ratio=1.40 / aq=1:1.00
Default : Да
Forced : Нет
Основные цвета : BT.709
Характеристики трансфера : BT.709
Коэффициенты матрицы : BT.709
Аудио #1
Идентификатор : 2
Формат : AC-3
Формат/Информация : Audio Coding 3
Расширение режима : CM (complete main)
Параметр Endianness формата : Big
Идентификатор кодека : A_AC3
Продолжительность : 1 ч. 29 м.
Вид битрейта : Постоянный
Битрейт : 192 Кбит/сек
Каналы : 2 канала
Расположение каналов : Front: L R
Частота : 48,0 КГц
Битовая глубина : 16 бит
Метод сжатия : С потерями
Размер потока : 122 Мбайт (8%)
Язык : Russian
Default : Нет
Forced : Нет
Аудио #2
Идентификатор : 3
Формат : AC-3
Формат/Информация : Audio Coding 3
Расширение режима : CM (complete main)
Параметр Endianness формата : Big
Идентификатор кодека : A_AC3
Продолжительность : 1 ч. 29 м.
Вид битрейта : Постоянный
Битрейт : 384 Кбит/сек
Каналы : 6 каналов
Расположение каналов : Front: L C R, Side: L R, LFE
Частота : 48,0 КГц
Битовая глубина : 16 бит
Метод сжатия : С потерями
Размер потока : 245 Мбайт (16%)
Язык : English
Default : Да
Forced : Нет
Текст
Идентификатор : 4
Формат : UTF-8
Идентификатор кодека : S_TEXT/UTF8
Идентификатор кодека/Информация : UTF-8 Plain Text
Язык : English
Default : Да
Forced : Нет

Скриншот c названием фильма

Скриншоты

[Profile]  [PM] 
Display posts:    
Reply to topic

Current time is: 21-Apr 10:51

All times are UTC + 2



You cannot post new topics in this forum
You cannot reply to topics in this forum
You cannot edit your posts in this forum
You cannot delete your posts in this forum
You cannot vote in polls in this forum
You cannot attach files in this forum
You cannot download files in this forum