Славные парни / The Nice Guys (Шейн Блэк / Shane Black) [2016, США, Криминал, комедия, BDRip-AVC] Dub + Original + Subs (rus, eng)

Reply to topic
 
Author
Message

Satyr ®

Gender: Unknown

Longevity: 11 years

Posts: 15401

Reputation: 55 [+] [-]

Satyr · Post 11-Sep-2016 01:22

[Quote] 

Славные парни / The Nice Guys«Симпатичная пара»- Страна: США
Жанр: криминал, комедия
Год выпуска: 2016
Продолжительность: 01:55:57
Перевод: Профессиональный (дублированный) (iTunes)
Оригинальная аудиодорожка: английский
Cубтитры: русские (полные, ненорматив. лекcика), английские (полные, SDH)
Навигация по главам: есть
Режиссер: Шейн Блэк / Shane Black
В ролях: Райан Гослинг, Ким Бейсингер, Расселл Кроу, Энгаури Райс, Мэтт Бомер, Маргарет Куэлли, Йайа ДаКоста, Кит Дэвид, Бо Напп, Лоис Смит
Описание: Что бывает, когда напарником брутального костолома становится субтильный лопух? Наемный охранник Джексон Хили и частный детектив Холланд Марч вынуждены работать в паре, чтобы распутать плевое дело о пропавшей девушке, которое оборачивается преступлением века.
Смогут ли парни разгадать сложный ребус, если у каждого из них — свои, весьма индивидуальные методы…- -Качество видео: BDRip-AVC (исходник - BDRemux|The.Nice.Guys.2016.1080p.BluRay.REMUX.AVC.DTS-HD.MA.5.1-FGT)
Формат видео: MKV
Видео: x264, 1152х480 (2.40:1), 23,976 fps, ~1655 kbps, 0.125 bit/pixel
Аудио 1: 48 kHz, AC3 Dolby Digital, 3/2 (L,C,R,l,r) + LFE ch, ~384 kbps [русский]
Аудио 2: 48 kHz, AC3 Dolby Digital, 3/2 (L,C,R,l,r) + LFE ch, ~448 kbps [английский]
Формат субтитров: softsub (SRT)

MediaInfo | x264 log

Format : Matroska
Format version : Version 4 / Version 2
File size : 2.06 GiB
Duration : 1h 55mn
Overall bit rate : 2 538 Kbps
Movie name : Славные парни / The Nice Guys (2016) :: AFM ::
Encoded date : UTC 2016-08-10 16:48:42
Writing application : mkvmerge v8.3.0 ('Over the Horizon') 32bit
Writing library : libebml v1.3.1 + libmatroska v1.4.2
Video
ID : 1
Format : AVC
Format/Info : Advanced Video Codec
Format profile : High@L4.1
Format settings, CABAC : Yes
Format settings, ReFrames : 10 frames
Codec ID : V_MPEG4/ISO/AVC
Duration : 1h 55mn
Bit rate : 1 655 Kbps
Width : 1 152 pixels
Height : 480 pixels
Display aspect ratio : 2.40:1
Frame rate mode : Constant
Frame rate : 23.976 fps
Color space : YUV
Chroma subsampling : 4:2:0
Bit depth : 8 bits
Scan type : Progressive
Bits/(Pixel*Frame) : 0.125
Stream size : 1.34 GiB (65%)
Title : BDRip by AFM [torrentsland.com.ua]
Writing library : x264 core 148 r2705+54 9f484c1 t_mod_Custom [8-bit@all X86_64]
Encoding settings : cabac=1 / ref=10 / deblock=1:-2:-2 / analyse=0x3:0x113 / me=umh / subme=10 / psy=1 / fade_compensate=0.00 / psy_rd=1.00:0.00 / mixed_ref=1 / me_range=32 / chroma_me=1 / trellis=2 / 8x8dct=1 / cqm=0 / deadzone=21,11 / fast_pskip=0 / chroma_qp_offset=-2 / threads=6 / lookahead_threads=1 / sliced_threads=0 / nr=0 / decimate=1 / interlaced=0 / bluray_compat=0 / constrained_intra=0 / fgo=0 / bframes=12 / b_pyramid=2 / b_adapt=2 / b_bias=0 / direct=1 / weightb=1 / open_gop=0 / weightp=2 / keyint=250 / keyint_min=23 / scenecut=40 / intra_refresh=0 / rc_lookahead=40 / rc=crf / mbtree=0 / crf=18.8800 / qcomp=0.65 / qpmin=0:0:0 / qpmax=69:69:69 / qpstep=4 / vbv_maxrate=50000 / vbv_bufsize=62500 / crf_max=0.0 / nal_hrd=none / filler=0 / ip_ratio=1.27 / pb_ratio=1.22 / aq=3:0.85 / aq-sensitivity=10.00 / aq-factor=1.00:1.00:1.00 / aq2=0 / aq3=0
Language : English
Default : Yes
Forced : No
Audio #1
ID : 2
Format : AC-3
Format/Info : Audio Coding 3
Mode extension : CM (complete main)
Format settings, Endianness : Big
Codec ID : A_AC3
Duration : 1h 55mn
Bit rate mode : Constant
Bit rate : 384 Kbps
Channel(s) : 6 channels
Channel positions : Front: L C R, Side: L R, LFE
Sampling rate : 48.0 KHz
Compression mode : Lossy
Stream size : 318 MiB (15%)
Title : Dub, AC3 5.1 ~384 kbps
Language : Russian
Default : Yes
Forced : No
Audio #2
ID : 3
Format : AC-3
Format/Info : Audio Coding 3
Mode extension : CM (complete main)
Format settings, Endianness : Big
Codec ID : A_AC3
Duration : 1h 55mn
Bit rate mode : Constant
Bit rate : 448 Kbps
Channel(s) : 6 channels
Channel positions : Front: L C R, Side: L R, LFE
Sampling rate : 48.0 KHz
Compression mode : Lossy
Stream size : 372 MiB (18%)
Title : Original, AC3 5.1 ~448 kbps
Language : English
Default : No
Forced : No
Text #1
ID : 4
Format : UTF-8
Codec ID : S_TEXT/UTF8
Codec ID/Info : UTF-8 Plain Text
Language : Russian
Default : No
Forced : No
Text #2
ID : 5
Format : UTF-8
Codec ID : S_TEXT/UTF8
Codec ID/Info : UTF-8 Plain Text
Language : English
Default : No
Forced : No
Text #3
ID : 6
Format : UTF-8
Codec ID : S_TEXT/UTF8
Codec ID/Info : UTF-8 Plain Text
Title : SDH
Language : English
Default : No
Forced : No
Menu
00:00:00.000 : en:Chapter 01
00:10:41.683 : en:Chapter 02
00:21:07.308 : en:Chapter 03
00:29:12.876 : en:Chapter 04
00:40:12.744 : en:Chapter 05
00:50:50.464 : en:Chapter 06
01:01:02.033 : en:Chapter 07
01:10:15.420 : en:Chapter 08
01:19:59.086 : en:Chapter 09
01:29:40.709 : en:Chapter 10
01:40:10.338 : en:Chapter 11
01:48:35.801 : en:Chapter 12
01:50:49.977 : en:Chapter 13

x264

x264 [info]: frame I:1686 Avg QP:16.46 size: 53557
x264 [info]: frame P:33635 Avg QP:17.74 size: 19097
x264 [info]: frame B:131482 Avg QP:20.35 size: 5698
x264 [info]: consecutive B-frames: 1.7% 1.4% 4.9% 23.6% 17.6% 32.7% 6.1% 6.1% 1.3% 2.9% 0.6% 0.6% 0.3%
x264 [info]: mb I I16..4: 8.1% 73.1% 18.8%
x264 [info]: mb P I16..4: 1.0% 8.2% 1.4% P16..4: 39.0% 27.6% 14.7% 0.0% 0.0% skip: 8.1%
x264 [info]: mb B I16..4: 0.1% 0.5% 0.1% B16..8: 39.9% 9.9% 2.5% direct: 3.3% skip:43.8% L0:42.6% L1:47.9% BI: 9.4%
x264 [info]: 8x8 transform intra:76.1% inter:66.0%
x264 [info]: coded y,uvDC,uvAC intra: 83.8% 82.7% 61.3% inter: 15.7% 13.0% 2.6%
x264 [info]: i16 v,h,dc,p: 30% 12% 7% 50%
x264 [info]: i8 v,h,dc,ddl,ddr,vr,hd,vl,hu: 11% 8% 6% 10% 14% 14% 13% 12% 12%
x264 [info]: i4 v,h,dc,ddl,ddr,vr,hd,vl,hu: 10% 6% 3% 12% 17% 16% 13% 12% 12%
x264 [info]: i8c dc,h,v,p: 38% 23% 21% 17%
x264 [info]: Weighted P-Frames: Y:3.4% UV:2.1%
x264 [info]: ref P L0: 51.0% 9.1% 16.2% 6.4% 5.0% 3.8% 3.3% 1.8% 1.7% 1.6% 0.1% 0.0%
x264 [info]: ref B L0: 75.6% 10.9% 5.5% 2.6% 1.9% 1.5% 1.2% 0.6% 0.2%
x264 [info]: ref B L1: 93.4% 6.6%
x264 [info]: kb/s:1703.92

Скриншоты

с названием

~~ Source ~~

~~ Rip ~~
[Profile]  [PM] 
Display posts:    
Reply to topic

Current time is: 27-Sep 11:15

All times are UTC + 2



You cannot post new topics in this forum
You cannot reply to topics in this forum
You cannot edit your posts in this forum
You cannot delete your posts in this forum
You cannot vote in polls in this forum
You cannot attach files in this forum
You cannot download files in this forum