Варкрафт / Warcraft (Дункан Джонс / Duncan Jones) [2016, США, фэнтези, боевик, приключения, WEB-DLRip] Dub (iTunes)

Reply to topic
 
Author
Message

Satyr ®

Gender: Unknown

Longevity: 11 years

Posts: 15401

Reputation: 55 [+] [-]

Satyr · Post 11-Sep-2016 01:22

[Quote] 

Варкрафт / Warcraft
«Два мира - одна судьба»- Год выхода: 2016
Выпущено: США / Universal Pictures
Жанр: фэнтези, боевик, приключения
Продолжительность: 02:03:06
Перевод: Профессиональный (полное дублирование)
Субтитры: нет-Режиссер:
Дункан Джонс / Duncan Jones-В ролях:
Трэвис Фиммел (Anduin Lothar), Пола Пэттон (Garona), Бен Фостер (Medivh), Доминик Купер (Llane Wrynn), Тоби Кеббелл (Durotan / Antonidas), Бен Шнетцер (Khadgar), Роберт Казински (Orgrim), Клэнси Браун (Blackhand), Дэниэл Ву (Gul'dan), Рут Негга (Lady Taria), Анна Галвин (Draka), Каллум Кит Ренни (Moroes)-О фильме:
Веками магия и неприступные стены защищали людей от любых напастей. Но древнее зло, побежденное и забытое тысячелетия назад, пробудилось. В самом сердце королевства открылся темный портал, и раса невиданных существ наводнила земли Азерота. Так начались события, призванные навсегда изменить судьбу этого мира.-Релиз групп | | IMDB | КиноПоиск | Сэмпл |-Качество: WEB-DLRip [WARCRAFT_WEB_DL_1080p-BLUEBIRD]
Формат: AVI
Видео: 704x288 (2.44:1), 23.976 fps, XviD build 67 ~1305 kbps avg, 0.27 bit/pixel
Аудио: 48 kHz, AC3 Dolby Digital, 3/2 (L,C,R,l,r) + LFE ch, ~384 kbps avg - iTunes Russia-

Скриншоты

-

MediaInfo

Общее
Полное имя                               : D:\Warcraft_2016_WEB-DLRip_iT_by_Dalemake.avi
Формат                                   : AVI
Формат/Информация                        : Audio Video Interleave
Размер файла                             : 1,46 Гбайт
Продолжительность                        : 2 ч. 3 м.
Общий поток                              : 1699 Кбит/сек
Программа кодирования                    : VirtualDubMod 1.5.10.3 | www.virtualdub-fr.org || (build 2550/release)
Библиотека кодирования                   : VirtualDubMod build 2550/release
Видео
Идентификатор                            : 0
Формат                                   : MPEG-4 Visual
Профиль формата                          : Advanced Simple@L5
Параметр BVOP формата                    : 1
Параметр QPel формата                    : Нет
Параметр GMC формата                     : Без точки перехода
Параметр матрицы формата                 : Выборочная
Идентификатор кодека                     : XVID
Идентификатор кодека/Подсказка           : XviD
Продолжительность                        : 2 ч. 3 м.
Битрейт                                  : 1306 Кбит/сек
Ширина                                   : 704 пикселя
Высота                                   : 288 пикселей
Соотношение сторон                       : 2,40:1
Частота кадров                           : 23,976 кадра/сек
Цветовое пространство                    : YUV
Субдискретизация насыщенности            : 4:2:0
Битовая глубина                          : 8 бит
Тип развёртки                            : Прогрессивная
Метод сжатия                             : С потерями
Бит/(Пиксели*Кадры)                      : 0.269
Размер потока                            : 1,12 Гбайт (77%)
Библиотека кодирования                   : XviD 67
Аудио
Идентификатор                            : 1
Формат                                   : AC-3
Формат/Информация                        : Audio Coding 3
Расширение режима                        : CM (complete main)
Параметр Endianness формата              : Big
Идентификатор кодека                     : 2000
Продолжительность                        : 2 ч. 3 м.
Вид битрейта                             : Постоянный
Битрейт                                  : 384 Кбит/сек
Каналы                                   : 6 каналов
Расположение каналов                     : Front: L C R, Side: L R, LFE
Частота                                  : 48,0 КГц
Битовая глубина                          : 16 бит
Метод сжатия                             : С потерями
Размер потока                            : 338 Мбайт (23%)
Выравнивание                             : Разделение по промежуткам
Продолжительность промежутка             : 42  мс. (1,00 видеокадр)
Время предзагрузки промежутка            : 500  мс.
-
[Profile]  [PM] 
Display posts:    
Reply to topic

Current time is: 24-Sep 04:07

All times are UTC + 2



You cannot post new topics in this forum
You cannot reply to topics in this forum
You cannot edit your posts in this forum
You cannot delete your posts in this forum
You cannot vote in polls in this forum
You cannot attach files in this forum
You cannot download files in this forum