Манхэттенская ночь / Manhattan Night (Брайан ДеКьюбелис / Brian DeCubellis) [2016, США, Триллер, драма, криминал, HDRip] MVO (Parovoz Production)

Reply to topic
 
Author
Message

Satyr ®

Gender: Unknown

Longevity: 11 years

Posts: 15401

Reputation: 55 [+] [-]

Satyr · Post 11-Sep-2016 01:22

[Quote] 

Манхэттенская ночь / Manhattan Night
Страна: США
Жанр: Триллер, драма, криминал
Год выпуска: 2016
Продолжительность: 01:53:56
Перевод: Любительский (многоголосый закадровый) - Parovoz Production
Cубтитры: нет
Оригинальная аудиодорожка: нет
Режиссер: Брайан ДеКьюбелис / Brian DeCubellis
В ролях: Ивонн Страховски, Эдриан Броуди, Дженнифер Билз, Кэмпбелл Скотт, Стивен Беркофф, Линда Лавин, Кевин Брезнахан, Амели МакКендри, Томас Баир, Мэдисон Элизабет Лахарес
Описание: С просьбы соблазнительной незнакомки разобраться в нераскрытом убийстве ее мужа начинается неприятная история сексуальной одержимости и шантажа, которая может стоить журналисту Портеру Рену его работы, семьи и даже жизни.
Сэмпл: http://multi-up.com/1111321
Качество видео: HDRip
Исходник: [Manhattan.Night.2016.MVO.BDRip.1080p.selezen]
Формат видео: AVI
Видео: 720x304 (2.37:1), 23.976 fps, XviD build 65 ~1632 kbps avg, 0.31 bit/pixel
Аудио: 48 kHz, AC3 Dolby Digital, 2/0 (L,R) ch, ~192 kbps
Rip by Ториял для

MediaInfo

General
Complete name : D:\Фильмы\Manhattan Night _2016_Toriyal_Rutracker.avi
Format : AVI
Format/Info : Audio Video Interleave
File size : 1.46 GiB
Duration : 1h 53mn
Overall bit rate : 1 834 Kbps
Writing application : VirtualDubMod 1.5.10.3 | www.virtualdub-fr.org || (build 2550/release)
Writing library : VirtualDubMod build 2550/release
Video
ID : 0
Format : MPEG-4 Visual
Format profile : Advanced Simple@L5
Format settings, BVOP : 1
Format settings, QPel : No
Format settings, GMC : No warppoints
Format settings, Matrix : Custom
Codec ID : XVID
Codec ID/Hint : XviD
Duration : 1h 53mn
Bit rate : 1 633 Kbps
Width : 720 pixels
Height : 304 pixels
Display aspect ratio : 2.35:1
Frame rate : 23.976 (23976/1000) fps
Color space : YUV
Chroma subsampling : 4:2:0
Bit depth : 8 bits
Scan type : Progressive
Compression mode : Lossy
Bits/(Pixel*Frame) : 0.311
Stream size : 1.30 GiB (89%)
Writing library : XviD 65
Audio
ID : 1
Format : AC-3
Format/Info : Audio Coding 3
Mode extension : CM (complete main)
Format settings, Endianness : Big
Codec ID : 2000
Duration : 1h 53mn
Bit rate mode : Constant
Bit rate : 192 Kbps
Channel(s) : 2 channels
Channel positions : Front: L R
Sampling rate : 48.0 KHz
Frame rate : 31.250 fps (1536 spf)
Compression mode : Lossy
Stream size : 156 MiB (10%)
Alignment : Split accross interleaves
Interleave, duration : 42 ms (1.00 video frame)
Interleave, preload duratio : 500 ms

Скриншоты

[Profile]  [PM] 
Display posts:    
Reply to topic

Current time is: 25-Sep 05:27

All times are UTC + 2



You cannot post new topics in this forum
You cannot reply to topics in this forum
You cannot edit your posts in this forum
You cannot delete your posts in this forum
You cannot vote in polls in this forum
You cannot attach files in this forum
You cannot download files in this forum