Несносные леди / Mother\'s Day (Гэрри Маршалл / Garry Marshall) [2016, США, драма, комедия, BDRip-AVC] Dub

Reply to topic
 
Author
Message

Satyr ®

Gender: Unknown

Longevity: 11 years

Posts: 15401

Reputation: 55 [+] [-]

Satyr · Post 11-Sep-2016 01:23

[Quote] 

Несносные леди
Mother's Day
«Не угадаешь, что они выкинут завтра»

Страна: США
Жанр: драма, комедия
Год выпуска: 2016
Продолжительность: 01:58:50
Перевод: Профессиональный (полное дублирование) [iTunes]
Cубтитры: нет
Оригинальная аудиодорожка: нет
Режиссер: Гэрри Маршалл / Garry Marshall
В ролях: Дженнифер Энистон, Джулия Робертс, Кейт Хадсон, Джейсон Судейкис, Тимоти Олифант, Шэй Митчелл, Калеб Браун, Брэндон Спинк, Сэм Маршалл, Сиена ЛаГамбина, Джозеф Лео Бвари, Мэттью Уолкер
Описание:
Фитнес и шопинг, капризные предки и непослушные дети, завистливые подружки и надоевшие бывшие - милые составляющие настоящего женского счастья. А также мужского, если ты - отец-одиночка. И неважно, где и как сведет вас жизнь, если ты встретишь настоящую любовь. Главное - не сдаваться! Ведь судьба - это большой супермаркет, а не магазин на диване.


Автор рипа: stalkerok
Сэмпл
Качество видео: BDRip-AVC [Mother's Day (2016) 1080p BD-Remux HDCLUB]
Формат видео: MKV
Видео: 1563 Кбит/сек, 816x442 (16:9), 23,976 кадр/сек, AVC
Аудио: русский, 192 Кбит/сек, 48 КГц, 16 бит, 2.0, AC3
Навигация по главам: есть

MediaInfo

Общее
Уникальный идентификатор : 229042275362905371608653744561560207335 (0xAC4FF00AD39B4DEB9EECE76B3603BFE7)
Полное имя : M:\2Rips\Mother's Day\Mother's.Day.2016.BDRip-AVC.Dub.1.45Gb.stalkerok.new-team.mkv
Формат : Matroska
Версия формата : Version 4 / Version 2
Размер файла : 1,46 Гбайт
Продолжительность : 1 ч. 58 м.
Общий поток : 1757 Кбит/сек
Название фильма : Mother's Day (2016) (Rip by stalkerok)
Дата кодирования : UTC 2016-07-22 12:57:05
Программа кодирования : mkvmerge v8.6.1 ('Flying') 64bit
Библиотека кодирования : libebml v1.3.3 + libmatroska v1.4.4
Видео
Идентификатор : 1
Формат : AVC
Формат/Информация : Advanced Video Codec
Профиль формата : High@L4.1
Параметр CABAC формата : Да
Параметр ReFrames формата : 15 кадров
Идентификатор кодека : V_MPEG4/ISO/AVC
Продолжительность : 1 ч. 58 м.
Битрейт : 1563 Кбит/сек
Ширина : 816 пикселей
Высота : 442 пикселя
Соотношение сторон : 1,85:1
Режим частоты кадров : Постоянный
Частота кадров : 23,976 (24000/1001) кадра/сек
Цветовое пространство : YUV
Субдискретизация насыщенности : 4:2:0
Битовая глубина : 8 бит
Тип развёртки : Прогрессивная
Бит/(Пиксели*Кадры) : 0.181
Размер потока : 1,30 Гбайт (89%)
Заголовок : Mother's Day (2016) (Rip by stalkerok)
Библиотека кодирования : x264 core 148 r2705+54 9f484c1 t_mod_Custom [8-bit@all X86_64]
Настройки программы : cabac=1 / ref=15 / deblock=1:-3:-2 / analyse=0x3:0x133 / me=umh / subme=10 / psy=1 / fade_compensate=0.00 / psy_rd=1.00:0.00 / mixed_ref=1 / me_range=32 / chroma_me=1 / trellis=2 / 8x8dct=1 / cqm=0 / deadzone=21,11 / fast_pskip=0 / chroma_qp_offset=-2 / threads=12 / lookahead_threads=3 / sliced_threads=0 / nr=0 / decimate=0 / interlaced=0 / bluray_compat=0 / constrained_intra=0 / fgo=0 / bframes=15 / b_pyramid=2 / b_adapt=2 / b_bias=0 / direct=3 / weightb=1 / open_gop=0 / weightp=2 / keyint=240 / keyint_min=23 / scenecut=40 / intra_refresh=0 / rc_lookahead=60 / rc=2pass / mbtree=0 / bitrate=1563 / ratetol=1.0 / qcomp=0.65 / qpmin=0:0:0 / qpmax=69:69:69 / qpstep=4 / cplxblur=20.0 / qblur=0.5 / vbv_maxrate=50000 / vbv_bufsize=62500 / nal_hrd=none / filler=0 / ip_ratio=1.40 / pb_ratio=1.30 / aq=3:0.90 / aq-sensitivity=10.00 / aq-factor=1.00:1.00:1.00 / aq2=0 / aq3=0
Default : Да
Forced : Нет
Аудио
Идентификатор : 2
Формат : AC-3
Формат/Информация : Audio Coding 3
Расширение режима : CM (complete main)
Параметр Endianness формата : Big
Идентификатор кодека : A_AC3
Продолжительность : 1 ч. 58 м.
Вид битрейта : Постоянный
Битрейт : 192 Кбит/сек
Каналы : 2 канала
Расположение каналов : Front: L R
Частота : 48,0 КГц
Частота кадров : 31,250 кадров/сек (1536 spf)
Метод сжатия : С потерями
Размер потока : 163 Мбайт (11%)
Язык : Russian
Default : Да
Forced : Нет
Меню
00:00:00.000 : en:Chapter 1
00:05:50.891 : en:Chapter 2
00:08:50.111 : en:Chapter 3
00:15:32.389 : en:Chapter 4
00:22:11.413 : en:Chapter 5
00:28:43.721 : en:Chapter 6
00:35:48.646 : en:Chapter 7
00:43:12.297 : en:Chapter 8
00:48:07.717 : en:Chapter 9
00:55:35.248 : en:Chapter 10
00:59:36.155 : en:Chapter 11
01:05:33.179 : en:Chapter 12
01:10:23.636 : en:Chapter 13
01:18:21.697 : en:Chapter 14
01:23:46.979 : en:Chapter 15
01:29:07.591 : en:Chapter 16
01:34:27.828 : en:Chapter 17
01:38:48.421 : en:Chapter 18
01:44:50.324 : en:Chapter 19
01:49:32.064 : en:Chapter 20

Скриншоты

[Profile]  [PM] 
Display posts:    
Reply to topic

Current time is: 27-Sep 11:17

All times are UTC + 2



You cannot post new topics in this forum
You cannot reply to topics in this forum
You cannot edit your posts in this forum
You cannot delete your posts in this forum
You cannot vote in polls in this forum
You cannot attach files in this forum
You cannot download files in this forum