Бэтмен против Супермена: На заре справедливости / Batman v Superman: Dawn of Justice (Зак Снайдер / Zack Snyder) [2016, США, Фантастика, боевик, приключения, BDRip] [Театральная версия / Theatrical Cut] Dub + Sub

Reply to topic
 
Author
Message

Satyr ®

Gender: Unknown

Longevity: 11 years

Posts: 15401

Reputation: 55 [+] [-]

Satyr · Post 11-Sep-2016 01:23

[Quote] 

Бэтмен против Супермена: На заре справедливости / Batman v Superman: Dawn of Justice- Год выхода: 2016
Выпущено: США / Warner Bros. Pictures
Жанр: фантастика, боевик, приключения
Продолжительность: 02:31:40
Перевод: Профессиональный (полное дублирование) BD CEE |Лицензия|
Субтитры: Русские (форсированные) (внешние srt*)-Режиссер:
Зак Снайдер / Zack Snyder-В ролях:
Генри Кавилл, Бен Аффлек, Галь Гадот, Эми Адамс, Джесси Айзенберг, Джереми Айронс, Дайан Лэйн, Лоренс Фишбёрн, Холли Хантер, Скут МакНэйри, Каллэн Мулвей, Тао Окамото, Брэндон Спинк, Лорен Коэн, Алан Д. Первин, Марк Эдвард Тейлор, Хью Магвайр, Майкл Шеннон, Ханна Дворкин, Тиффани Л. Эддисон-О фильме:
Опасаясь, что действия богоподобного супергероя так и останутся бесконтрольными, грозный и могущественный страж Готэм Сити бросает вызов самому почитаемому в наши дни спасителю Метрополиса, в то время как весь остальной мир решает, какой герой ему по-настоящему нужен. И пока Бэтмен и Супермен пребывают в состоянии войны друг с другом, возникает новая угроза, которая ставит человечество под самую большую опасность, с которой оно когда-либо сталкивалось.-Релиз групп | | IMDB | КиноПоиск | Сэмпл |-Качество: BDRip [Batman v Superman: Dawn of Justice 2016 Theatrical Cut CEE Blu-ray 1080p AVC Atmos-HDClub]
Формат: AVI
Видео: 720x304 (2.37:1), 23.976 fps, XviD build 67 ~1178 kbps avg, 0.22 bit/pixel
Аудио: 48 kHz, AC3 Dolby Digital, 2/0 (L,R) ch, ~192 kbps avg-

Скриншоты

-

MediaInfo

Общее
Полное имя                               : D:\Batman_v_Superman_2016_BDRip_[Theatrical_Cut]_by_Dalemake.avi
Формат                                   : AVI
Формат/Информация                        : Audio Video Interleave
Размер файла                             : 1,46 Гбайт
Продолжительность                        : 2 ч. 31 м.
Общий поток                              : 1380 Кбит/сек
Программа кодирования                    : VirtualDubMod 1.5.10.3 | www.virtualdub-fr.org || (build 2550/release)
Библиотека кодирования                   : VirtualDubMod build 2550/release
Видео
Идентификатор                            : 0
Формат                                   : MPEG-4 Visual
Профиль формата                          : Advanced Simple@L5
Параметр BVOP формата                    : 1
Параметр QPel формата                    : Нет
Параметр GMC формата                     : Без точки перехода
Параметр матрицы формата                 : Выборочная
Идентификатор кодека                     : XVID
Идентификатор кодека/Подсказка           : XviD
Продолжительность                        : 2 ч. 31 м.
Битрейт                                  : 1179 Кбит/сек
Ширина                                   : 720 пикселей
Высота                                   : 304 пикселя
Соотношение сторон                       : 2,35:1
Частота кадров                           : 23,976 кадра/сек
Цветовое пространство                    : YUV
Субдискретизация насыщенности            : 4:2:0
Битовая глубина                          : 8 бит
Тип развёртки                            : Прогрессивная
Метод сжатия                             : С потерями
Бит/(Пиксели*Кадры)                      : 0.225
Размер потока                            : 1,25 Гбайт (85%)
Библиотека кодирования                   : XviD 67
Аудио
Идентификатор                            : 1
Формат                                   : AC-3
Формат/Информация                        : Audio Coding 3
Расширение режима                        : CM (complete main)
Параметр Endianness формата              : Big
Идентификатор кодека                     : 2000
Продолжительность                        : 2 ч. 31 м.
Вид битрейта                             : Постоянный
Битрейт                                  : 192 Кбит/сек
Каналы                                   : 2 канала
Расположение каналов                     : Front: L R
Частота                                  : 48,0 КГц
Битовая глубина                          : 16 бит
Метод сжатия                             : С потерями
Размер потока                            : 208 Мбайт (14%)
Выравнивание                             : Разделение по промежуткам
Продолжительность промежутка             : 42  мс. (1,00 видеокадр)
Время предзагрузки промежутка            : 500  мс.
-
[Profile]  [PM] 
Display posts:    
Reply to topic

Current time is: 01-Oct 06:39

All times are UTC + 2



You cannot post new topics in this forum
You cannot reply to topics in this forum
You cannot edit your posts in this forum
You cannot delete your posts in this forum
You cannot vote in polls in this forum
You cannot attach files in this forum
You cannot download files in this forum