Двое во вселенной / La corrispondenza (Джузеппе Торнаторе / Giuseppe Tornatore) [2016, Италия, Драма, мелодрама, BDRip] Dub

Reply to topic
 
Author
Message

Satyr ®

Gender: Unknown

Longevity: 11 years

Posts: 15401

Reputation: 55 [+] [-]

Satyr · Post 11-Sep-2016 01:23

[Quote] 

Двое во вселенной / La corrispondenza
Страна: Италия
Жанр: Драма, мелодрама
Год выпуска: 2016
Продолжительность: 02:02:07
Перевод: Профессиональный (дублированный)
Cубтитры: нет
Режиссер: Джузеппе Торнаторе / Giuseppe Tornatore
В ролях: Ольга Куриленко, Джереми Айронс, Шона МакДональд, Анна Савва, Джеймс Смилли, Саймон Микок, Джерри Квартенг, Род Гленн, Джеймс Блур, Ирина Кара
Описание: Эд и Эми — ученый и студентка, изучающие теорию струн и космических двойников, вселенную и параллельные измерения. Они — родственные души, созданные друг для друга. Их любовь не знает границ и расстояний. Но внезапно Эд исчезает. И все, что у нее остается — это регулярно приходящие от него послания. В какую игру втягивают Эми? Эксперимент ученого, решившего скрыться от мира? Или игру высших сил, посылающих ей любимого в чужих обличьях? Или она продолжает видеть свет погасшей звезды?
Доп. информация: Нет, это не LINE. Спасибо т/к ПРЕМЬЕРА НТВ-ПЛЮС за русскую дорожку.
Релиз от Megapeer
Сэмпл: http://multi-up.com/1110399
Качество видео: BDRip (Исх. BDRemux от HDClub)
Формат видео: AVI
Видео: 720x304 (2.37:1), 23.976 fps, XviD build 73 ~1513 kbps avg, 0.29 bit/pixel
Аудио: 48 kHz, AC3 Dolby Digital, 2/0 (L,R) ch, ~192 kbps - HTB+

MediaInfo

ОбщееПолное имя                               : D:\загрузки\La.corrispondenza.2016.BDRip.1.46Gb.MegaP.aviФормат                                   : AVIФормат/Информация                        : Audio Video InterleaveРазмер файла                             : 1,46 ГбайтПродолжительность                        : 2 ч. 2 м.Общий поток                              : 1713 Кбит/сек
ВидеоИдентификатор : 0Формат : MPEG-4 VisualПрофиль формата : Advanced Simple@L5Параметр BVOP формата : 1Параметр QPel формата : НетПараметр GMC формата : Без точки переходаПараметр матрицы формата : ВыборочнаяИдентификатор кодека : XVIDИдентификатор кодека/Подсказка : XviDПродолжительность : 2 ч. 2 м.Битрейт : 1514 Кбит/секШирина : 720 пикселейВысота : 304 пикселяСоотношение сторон : 2,35:1Частота кадров : 23,976 (24000/1001) кадра/секЦветовое пространство : YUVСубдискретизация насыщенности : 4:2:0Битовая глубина : 8 битТип развёртки : ПрогрессивнаяМетод сжатия : С потерямиБит/(Пиксели*Кадры) : 0.288Размер потока : 1,29 Гбайт (88%)Библиотека кодирования : XviD 73
АудиоИдентификатор : 1Формат : AC-3Формат/Информация : Audio Coding 3Расширение режима : CM (complete main)Параметр Endianness формата : BigИдентификатор кодека : 2000Продолжительность : 2 ч. 2 м.Вид битрейта : ПостоянныйБитрейт : 192 Кбит/секКаналы : 2 каналаРасположение каналов : Front: L RЧастота : 48,0 КГцЧастота кадров : 31,250 кадров/сек (1536 spf)Метод сжатия : С потерямиРазмер потока : 168 Мбайт (11%)Выравнивание : Соединение по промежуткамПродолжительность промежутка : 64 мс. (1,53 видеокадра)Время предзагрузки промежутка : 192 мс.Заголовок : HTB+

Скриншоты

[Profile]  [PM] 
Display posts:    
Reply to topic

Current time is: 22-Jan 14:06

All times are UTC + 2



You cannot post new topics in this forum
You cannot reply to topics in this forum
You cannot edit your posts in this forum
You cannot delete your posts in this forum
You cannot vote in polls in this forum
You cannot attach files in this forum
You cannot download files in this forum