Роковое влечение / Éperdument (Пьер Годо / Pierre Godeau) [2016, Франция, Бельгия, драма, WEB-DLRip] MVO (iTunes)

Reply to topic
 
Author
Message

Satyr ®

Gender: Unknown

Longevity: 11 years

Posts: 15401

Reputation: 55 [+] [-]

Satyr · Post 11-Sep-2016 01:23

[Quote] 

Роковое влечение / Éperdument
Страна: Франция, Бельгия
Жанр: драма
Год выпуска: 2016
Продолжительность: 01:50:15
Перевод: Профессиональный (многоголосый закадровый) iTunes
Cубтитры: нет
Режиссер: Пьер Годо / Pierre Godeau
В ролях: Адель Экзаркопулос, Гийом Гальенн, Стефани Клео, Aliénor Poisson, Cyrielle Martinez, Selma Mansouri, Сабила Муссадек, Жюли Мулье, Мари Ривьер, Марилин Ивен
Описание: Его жизнь была беззаботной и счастливой — прекрасная работа, любящая жена, дочь. Но он готов потерять все ради нее. Кто она? Невинная девушка или сексуальная искусительница, легко манипулирующая мужчинами?
Сэмпл: http://multi-up.com/1109704
Возраст: 18+ (зрителям, достигшим 18 лет)
Качество видео: WEB-DLRip
Формат видео: AVI
Видео: 688x288 (2.39:1), 24 fps, XviD build 73 ~807 kbps avg, 0.17 bit/pixel
Аудио: 48 kHz, MPEG Layer 3, 2 ch, ~128.00 kbps avg

MediaInfo

ОбщееПолное имя                               : D:\загрузки\Rokovoe.Vlechenie.2016.WEB-DLRip.Portablius.aviФормат                                   : AVIФормат/Информация                        : Audio Video InterleaveРазмер файла                             : 745 МбайтПродолжительность                        : 1 ч. 50 м.Общий поток                              : 945 Кбит/секПрограмма кодирования                    : VirtualDubMod 1.5.10.3 | www.virtualdub-fr.org || (build 2550/release)Библиотека кодирования                   : VirtualDubMod build 2550/release
ВидеоИдентификатор : 0Формат : MPEG-4 VisualПрофиль формата : Advanced Simple@L5Параметр BVOP формата : 1Параметр QPel формата : НетПараметр GMC формата : Без точки переходаПараметр матрицы формата : ВыборочнаяИдентификатор кодека : XVIDИдентификатор кодека/Подсказка : XviDПродолжительность : 1 ч. 50 м.Битрейт : 808 Кбит/секШирина : 688 пикселейВысота : 288 пикселейСоотношение сторон : 2,40:1Частота кадров : 24,000 кадра/секЦветовое пространство : YUVСубдискретизация насыщенности : 4:2:0Битовая глубина : 8 битТип развёртки : ПрогрессивнаяМетод сжатия : С потерямиБит/(Пиксели*Кадры) : 0.170Размер потока : 637 Мбайт (85%)Библиотека кодирования : XviD 73
АудиоИдентификатор : 1Формат : MPEG AudioВерсия формата : Version 1Профиль формата : Layer 3Идентификатор кодека : 55Идентификатор кодека/Подсказка : MP3Продолжительность : 1 ч. 50 м.Вид битрейта : ПостоянныйБитрейт : 128 Кбит/секКаналы : 2 каналаЧастота : 48,0 КГцМетод сжатия : С потерямиРазмер потока : 101 Мбайт (14%)Выравнивание : Соединение по промежуткамПродолжительность промежутка : 42 мс. (1,00 видеокадр)Время предзагрузки промежутка : 504 мс.Библиотека кодирования : LAME3.99rНастройки программы : -m s -V 4 -q 2 -lowpass 17 -b 128

Скриншоты

[Profile]  [PM] 
Display posts:    
Reply to topic

Current time is: 24-Jan 08:33

All times are UTC + 2



You cannot post new topics in this forum
You cannot reply to topics in this forum
You cannot edit your posts in this forum
You cannot delete your posts in this forum
You cannot vote in polls in this forum
You cannot attach files in this forum
You cannot download files in this forum