Бэтмен против Супермена: На заре справедливости / Batman v Superman: Dawn of Justice (Зак Снайдер / Zack Snyder) [2016, США, фантастика, боевик, приключения, BDRip-AVC] [Театральная версия / Theatrical Cut] Dub + Original + Sub (rus, eng)

Reply to topic
 
Author
Message

Satyr ®

Gender: Unknown

Longevity: 11 years

Posts: 15401

Reputation: 55 [+] [-]

Satyr · Post 11-Sep-2016 01:23

[Quote] 

Бэтмен против Супермена: На заре справедливости / Batman v Superman: Dawn of Justice«Who will win?»- Страна: США
Жанр: фантастика, боевик, приключения
Год выпуска: 2016
Продолжительность: 02:31:40
Перевод: Профессиональный (дублированный) (iTunes)
Оригинальная аудиодорожка: английский
Cубтитры: русские (форс., полные) английские (полные, SDH)
Навигация по главам: есть
Режиссер: Зак Снайдер / Zack Snyder
В ролях: Генри Кавилл (Clark Kent / Superman), Бен Аффлек (Bruce Wayne / Batman), Галь Гадот (Diana Prince / Wonder Woman), Эми Адамс (Lois), Джесси Айзенберг (Lex Luthor), Джереми Айронс (Alfred), Дайан Лэйн (Martha Kent), Лоренс Фишбёрн (Perry White), Холли Хантер (Senator Finch), Скут МакНэри (Wallace Keefe), Каллэн Мулвей (Anatoli Knyazev), Тао Окамото (Mercy Graves)
Описание: Опасаясь, что действия богоподобного супергероя так и останутся бесконтрольными, грозный и могущественный страж Готэм Сити бросает вызов самому почитаемому в наши дни спасителю Метрополиса, в то время как весь остальной мир решает, какой герой ему по-настоящему нужен. И пока Бэтмен и Супермен пребывают в состоянии войны друг с другом, возникает новая угроза, которая ставит человечество под самую большую опасность, с которой оно когда-либо сталкивалось.- -Качество: BDRip-AVC (исходник - BDRemux|BATMAN_V_SUPERMAN_DAWN_OF_JUSTICE_TC_REMUX_HDCLUB)
Формат видео: MKV
Видео: x264, 960x400 (2.40:1), 23,976 fps, ~1975 kbps, 0.215 bit/pixel
Аудио 1: 48 kHz, AC3 Dolby Digital, 3/2 (L,C,R,l,r) + LFE ch, ~384 kbps [русский]
Аудио 2: 48 kHz, AC3 Dolby Digital, 3/2 (L,C,R,l,r) + LFE ch, ~384 kbps [английский]
Формат субтитров: softsub (SRT)-

MediaInfo | x264 log

Format : Matroska
Format version : Version 4 / Version 2
File size : 2.90 GiB
Duration : 2h 31mn
Overall bit rate : 2 742 Kbps
Movie name : Бэтмен против Супермена: На заре справедливости / Batman v Superman: Dawn of Justice (2016) :: AFM ::
Encoded date : UTC 2016-07-08 11:59:02
Writing application : mkvmerge v8.3.0 ('Over the Horizon') 32bit
Writing library : libebml v1.3.1 + libmatroska v1.4.2
Video
ID : 1
Format : AVC
Format/Info : Advanced Video Codec
Format profile : High@L4.1
Format settings, CABAC : Yes
Format settings, ReFrames : 11 frames
Codec ID : V_MPEG4/ISO/AVC
Duration : 2h 31mn
Bit rate : 1 975 Kbps
Width : 960 pixels
Height : 400 pixels
Display aspect ratio : 2.40:1
Frame rate mode : Constant
Frame rate : 23.976 fps
Color space : YUV
Chroma subsampling : 4:2:0
Bit depth : 8 bits
Scan type : Progressive
Bits/(Pixel*Frame) : 0.215
Stream size : 2.03 GiB (70%)
Title : BDRip by AFM [torrentsland.com.ua]
Writing library : x264 core 148 r2705+54 9f484c1 t_mod_Custom [8-bit@all X86_64]
Encoding settings : cabac=1 / ref=11 / deblock=1:-2:-1 / analyse=0x3:0x113 / me=umh / subme=10 / psy=1 / fade_compensate=0.00 / psy_rd=0.90:0.00 / mixed_ref=1 / me_range=32 / chroma_me=1 / trellis=2 / 8x8dct=1 / cqm=0 / deadzone=21,11 / fast_pskip=0 / chroma_qp_offset=-2 / threads=6 / lookahead_threads=1 / sliced_threads=0 / nr=0 / decimate=0 / interlaced=0 / bluray_compat=0 / constrained_intra=0 / fgo=0 / bframes=14 / b_pyramid=2 / b_adapt=2 / b_bias=0 / direct=3 / weightb=1 / open_gop=0 / weightp=2 / keyint=250 / keyint_min=23 / scenecut=40 / intra_refresh=0 / rc_lookahead=40 / rc=2pass / mbtree=0 / bitrate=1975 / ratetol=1.0 / qcomp=0.65 / qpmin=0:0:0 / qpmax=69:69:69 / qpstep=4 / cplxblur=20.0 / qblur=0.5 / vbv_maxrate=50000 / vbv_bufsize=62500 / nal_hrd=none / filler=0 / ip_ratio=1.25 / pb_ratio=1.20 / aq=3:0.90 / aq-sensitivity=10.00 / aq-factor=1.00:1.00:1.00 / aq2=0 / aq3=0 / zones=206921,218189,q=27
Language : English
Default : Yes
Forced : No
Audio #1
ID : 2
Format : AC-3
Format/Info : Audio Coding 3
Mode extension : CM (complete main)
Format settings, Endianness : Big
Codec ID : A_AC3
Duration : 2h 31mn
Bit rate mode : Constant
Bit rate : 384 Kbps
Channel(s) : 6 channels
Channel positions : Front: L C R, Side: L R, LFE
Sampling rate : 48.0 KHz
Compression mode : Lossy
Stream size : 417 MiB (14%)
Title : Dub, AC3 5.1 ~384 kbps
Language : Russian
Default : Yes
Forced : No
Audio #2
ID : 3
Format : AC-3
Format/Info : Audio Coding 3
Mode extension : CM (complete main)
Format settings, Endianness : Big
Codec ID : A_AC3
Duration : 2h 31mn
Bit rate mode : Constant
Bit rate : 384 Kbps
Channel(s) : 6 channels
Channel positions : Front: L C R, Side: L R, LFE
Sampling rate : 48.0 KHz
Compression mode : Lossy
Stream size : 417 MiB (14%)
Title : Original, AC3 5.1 ~384 kbps
Language : English
Default : No
Forced : No
Text #1
ID : 4
Format : UTF-8
Codec ID : S_TEXT/UTF8
Codec ID/Info : UTF-8 Plain Text
Title : forced
Language : Russian
Default : Yes
Forced : No
Text #2
ID : 5
Format : UTF-8
Codec ID : S_TEXT/UTF8
Codec ID/Info : UTF-8 Plain Text
Language : Russian
Default : No
Forced : No
Text #3
ID : 6
Format : UTF-8
Codec ID : S_TEXT/UTF8
Codec ID/Info : UTF-8 Plain Text
Language : English
Default : No
Forced : No
Text #4
ID : 7
Format : UTF-8
Codec ID : S_TEXT/UTF8
Codec ID/Info : UTF-8 Plain Text
Title : SDH
Language : English
Default : No
Forced : No
Menu
00:00:00.000 : en:Chapter 01
00:09:50.047 : en:Chapter 02
00:20:45.786 : en:Chapter 03
00:29:58.671 : en:Chapter 04
00:38:46.614 : en:Chapter 05
00:49:25.920 : en:Chapter 06
00:59:21.556 : en:Chapter 07
01:10:06.202 : en:Chapter 08
01:21:15.118 : en:Chapter 09
01:30:00.310 : en:Chapter 10
01:38:20.810 : en:Chapter 11
01:49:57.381 : en:Chapter 12
02:01:49.051 : en:Chapter 13
02:10:40.412 : en:Chapter 14
02:18:41.313 : en:Chapter 15
02:23:50.370 : en:Chapter 16
02:31:40.049 : en:Chapter 17

x264

x264 [info]: frame I:1437 Avg QP:16.88 size: 44807
x264 [info]: frame P:52841 Avg QP:19.74 size: 18137
x264 [info]: frame B:163911 Avg QP:20.93 size: 7441
x264 [info]: consecutive B-frames: 4.2% 4.0% 8.1% 26.3% 16.8% 25.9% 5.7% 3.8% 1.8% 0.7% 0.7% 0.9% 0.4% 0.3% 0.5%
x264 [info]: mb I I16..4: 6.2% 75.2% 18.7%
x264 [info]: mb P I16..4: 2.2% 16.2% 2.1% P16..4: 36.1% 24.6% 12.4% 0.0% 0.0% skip: 6.5%
x264 [info]: mb B I16..4: 0.1% 1.3% 0.2% B16..8: 40.9% 13.6% 4.2% direct: 5.9% skip:33.7% L0:45.4% L1:44.5% BI:10.1%
x264 [info]: 8x8 transform intra:78.9% inter:60.9%
x264 [info]: direct mvs spatial:97.4% temporal:2.6%
x264 [info]: coded y,uvDC,uvAC intra: 79.5% 67.2% 35.6% inter: 29.0% 15.7% 3.9%
x264 [info]: i16 v,h,dc,p: 38% 17% 9% 36%
x264 [info]: i8 v,h,dc,ddl,ddr,vr,hd,vl,hu: 9% 8% 11% 9% 14% 12% 14% 10% 13%
x264 [info]: i4 v,h,dc,ddl,ddr,vr,hd,vl,hu: 8% 8% 5% 10% 16% 14% 15% 11% 14%
x264 [info]: i8c dc,h,v,p: 40% 27% 17% 16%
x264 [info]: Weighted P-Frames: Y:7.8% UV:4.8%
x264 [info]: ref P L0: 46.3% 9.9% 16.1% 6.8% 5.7% 4.0% 3.5% 2.0% 2.1% 1.7% 1.6% 0.3% 0.0%
x264 [info]: ref B L0: 71.5% 11.5% 6.0% 3.1% 2.8% 1.8% 1.4% 0.9% 0.7% 0.3%
x264 [info]: ref B L1: 94.3% 5.7%
x264 [info]: kb/s:1971.35

Скриншоты

с названием

08.07.2016 торрент перезалит, замена WEB-DLRip -> BDRip
[Profile]  [PM] 
Display posts:    
Reply to topic

Current time is: 20-Sep 18:53

All times are UTC + 2



You cannot post new topics in this forum
You cannot reply to topics in this forum
You cannot edit your posts in this forum
You cannot delete your posts in this forum
You cannot vote in polls in this forum
You cannot attach files in this forum
You cannot download files in this forum