Несмотря на падающий снег / Despite the Falling Snow (Шамим Шариф / Shamim Sarif) [2016, Великобритания, Канада, триллер, драма, мелодрама, детектив, BDRip-AVC] MVO + Original Eng

Reply to topic
 
Author
Message

Satyr ®

Gender: Unknown

Longevity: 11 years

Posts: 15401

Reputation: 55 [+] [-]

Satyr · Post 11-Sep-2016 01:25

[Quote] 

Несмотря на падающий снег / Despite the Falling Snow
Страна: Великобритания, Канада
Жанр: триллер, драма, мелодрама, детектив
Год выпуска: 2016
Продолжительность: 01:33:38-Перевод: Любительский (многоголосный закадровый)
Cубтитры: нет
Оригинальная аудиодорожка: английский-Режиссер: Шамим Шариф / Shamim Sarif-В ролях: Ребекка Фергюсон (II), Чарльз Дэнс, Антье Трауэ, Оливер Джексон-Коэн, Энтони Хэд, Эми Натталл, Сэм Рид, Туре Линдхардт, Бен Бэтт, Милош Тимотиевич, Энн Кидд, Бранислав Томашевич, Ана Софренович, Тамара Крцунович, Марко Янжич, Имоджен Дэйнес, Пит Чеффи, Ненад Херакович, Андрея Маричич, Марк Джакс-Описание: В Москве 50-х годов коммунистка Катя тайно шпионит для США в ходе гонки вооружений Холодной войны. Когда она получает свое важнейшее задание — кражу секретной информации у успешного кремлевского политика Александра, последнее, что она ожидает, это влюбиться в него. Примирение ее страсти к нему с ее убеждениями относительно коммунизма становится величайшей жертвой всей ее жизни — жертвой, которая откроется Александру только спустя тридцать лет.-Сэмпл: http://sendfile.su/1239640-Качество видео: BDRip-AVC
Качество: BDRip (исходник: 2016.Несмотря на падающий снег.BDRemux.1080p.h264.DTS.7.1.ENG.SP.RU)
Формат видео: MKV
Видео: MPEG4/AVC, 1152x624, 1.85:1, 24.000 fps, 2643 Kbps
Аудио 1: AC-3, 48.0 KHz, 192 Kbps, 2 channels | любительский
Аудио 2: AC-3, 48.0 KHz, 448 Kbps, 5.1 channels | английский

MediaInfo

Формат : Matroska
Версия формата : Version 2
Размер файла : 2,15 Гбайт
Продолжительность : 1 ч. 33 м.
Общий поток : 3284 Кбит/сек
Дата кодирования : UTC 2016-06-03 19:31:01
Программа кодирования : mkvmerge v7.6.0 ('Garden of Dreams') 32bit built on Feb 11 2015 00:18:47
Библиотека кодирования : libebml v1.3.1 + libmatroska v1.4.2
Видео
Идентификатор : 1
Формат : AVC
Формат/Информация : Advanced Video Codec
Профиль формата : High@L4.1
Параметр CABAC формата : Да
Параметр ReFrames формата : 9 кадров
Идентификатор кодека : V_MPEG4/ISO/AVC
Продолжительность : 1 ч. 33 м.
Битрейт : 2643 Кбит/сек
Ширина : 1152 пикселя
Высота : 624 пикселя
Соотношение сторон : 1,85:1
Режим частоты кадров : Постоянный
Частота кадров : 24,000 кадра/сек
Цветовое пространство : YUV
Субдискретизация насыщенности : 4:2:0
Битовая глубина : 8 бит
Тип развёртки : Прогрессивная
Бит/(Пиксели*Кадры) : 0.153
Размер потока : 1,69 Гбайт (79%)
Библиотека кодирования : x264 core 144 r2525 40bb568
Настройки программы : cabac=1 / ref=9 / deblock=1:-3:-3 / analyse=0x3:0x113 / me=umh / subme=9 / psy=1 / psy_rd=1.00:0.00 / mixed_ref=1 / me_range=32 / chroma_me=1 / trellis=2 / 8x8dct=1 / cqm=0 / deadzone=21,11 / fast_pskip=0 / chroma_qp_offset=-2 / threads=6 / lookahead_threads=1 / sliced_threads=0 / nr=0 / decimate=1 / interlaced=0 / bluray_compat=0 / constrained_intra=0 / bframes=9 / b_pyramid=2 / b_adapt=2 / b_bias=0 / direct=3 / weightb=1 / open_gop=0 / weightp=2 / keyint=240 / keyint_min=24 / scenecut=40 / intra_refresh=0 / rc_lookahead=50 / rc=2pass / mbtree=1 / bitrate=2643 / ratetol=1.0 / qcomp=0.60 / qpmin=0 / qpmax=69 / qpstep=4 / cplxblur=20.0 / qblur=0.5 / vbv_maxrate=14000 / vbv_bufsize=14000 / nal_hrd=none / filler=0 / ip_ratio=1.40 / aq=1:1.00
Язык : English
Default : Да
Forced : Нет
Аудио #1
Идентификатор : 2
Формат : AC-3
Формат/Информация : Audio Coding 3
Расширение режима : CM (complete main)
Параметр Endianness формата : Big
Идентификатор кодека : A_AC3
Продолжительность : 1 ч. 33 м.
Вид битрейта : Постоянный
Битрейт : 192 Кбит/сек
Каналы : 2 канала
Расположение каналов : Front: L R
Частота : 48,0 КГц
Частота кадров : 31,250 кадров/сек (1536 spf)
Метод сжатия : С потерями
Размер потока : 129 Мбайт (6%)
Заголовок : любительский
Язык : Russian
Default : Да
Forced : Нет
Аудио #2
Идентификатор : 3
Формат : AC-3
Формат/Информация : Audio Coding 3
Расширение режима : CM (complete main)
Параметр Endianness формата : Big
Идентификатор кодека : A_AC3
Продолжительность : 1 ч. 33 м.
Вид битрейта : Постоянный
Битрейт : 448 Кбит/сек
Каналы : 6 каналов
Расположение каналов : Front: L C R, Side: L R, LFE
Частота : 48,0 КГц
Частота кадров : 31,250 кадров/сек (1536 spf)
Метод сжатия : С потерями
Размер потока : 300 Мбайт (14%)
Заголовок : оригинал
Язык : English
Default : Нет
Forced : Нет
Меню
00:00:00.000 : en:00:00:00.000
00:09:01.625 : en:00:09:01.625
00:18:18.333 : en:00:18:18.333
00:27:56.625 : en:00:27:56.625
00:37:06.666 : en:00:37:06.666
00:45:49.916 : en:00:45:49.916
00:55:55.250 : en:00:55:55.250
01:07:00.583 : en:01:07:00.583
01:15:11.458 : en:01:15:11.458
01:22:38.333 : en:01:22:38.333

Скриншот c названием фильма

Скриншоты

log

raw [info]: 1152x624p 1:1 @ 10000000/416667 fps (cfr)
x264 [info]: using SAR=1/1
x264 [info]: using cpu capabilities: MMX2 SSE2Fast SSSE3 Cache64 SlowShuffle
x264 [info]: profile Main, level 4.1
x264 [info]: frame I:1138 Avg QP:12.77 size: 92589
x264 [info]: frame P:27111 Avg QP:16.13 size: 28650
x264 [info]: frame B:106571 Avg QP:17.98 size: 8974
x264 [info]: consecutive B-frames: 1.6% 1.6% 8.9% 9.1% 16.1% 52.5% 6.5% 0.8% 1.7% 1.3%
x264 [info]: mb I I16..4: 32.9% 0.0% 67.1%
x264 [info]: mb P I16..4: 34.8% 0.0% 0.0% P16..4: 54.8% 0.0% 0.0% 0.0% 0.0% skip:10.4%
x264 [info]: mb B I16..4: 8.0% 0.0% 0.0% B16..8: 30.7% 0.0% 0.0% direct:22.7% skip:38.5% L0:35.3% L1:39.8% BI:24.9%
x264 [info]: final ratefactor: 16.75
x264 [info]: direct mvs spatial:99.9% temporal:0.1%
x264 [info]: coded y,uvDC,uvAC intra: 60.6% 69.2% 43.0% inter: 19.5% 25.2% 1.6%
x264 [info]: i16 v,h,dc,p: 36% 18% 33% 13%
x264 [info]: i4 v,h,dc,ddl,ddr,vr,hd,vl,hu: 22% 16% 16% 8% 8% 8% 7% 8% 7%
x264 [info]: i8c dc,h,v,p: 57% 17% 21% 5%
x264 [info]: Weighted P-Frames: Y:2.1% UV:0.7%
x264 [info]: kb/s:2618.22
[/spoiler
[Profile]  [PM] 
Display posts:    
Reply to topic

Current time is: 28-Jan 14:53

All times are UTC + 2



You cannot post new topics in this forum
You cannot reply to topics in this forum
You cannot edit your posts in this forum
You cannot delete your posts in this forum
You cannot vote in polls in this forum
You cannot attach files in this forum
You cannot download files in this forum