Да здравствует Цезарь! / Hail, Caesar! (Итан Коэн / Ethan Coen, Джоэл Коэн / Joel Coen) [2016, Великобритания, США, комедия, BDRip-AVC] Dub (iTunes) + Sub Rus, Eng

Reply to topic
 
Author
Message

Satyr ®

Gender: Unknown

Longevity: 11 years

Posts: 15401

Reputation: 55 [+] [-]

Satyr · Post 11-Sep-2016 01:25

[Quote] 

Да здравствует Цезарь! | Hail, Caesar!
«Lights. Camera. Abduction»- Страна: Великобритания, США, Япония
Жанр: комедия
Год выпуска: 2016
Продолжительность: 01:46:05
Перевод: Профессиональный (полное дублирование) iTunes
Оригинальная аудиодорожка: нет
Cубтитры: русские (форс., полные), английские (SDH)
Навигация по главам: есть-Режиссеры
Итан Коэн / Ethan Coen, Джоэл Коэн / Joel CoenВ ролях:
Джош Бролин | Josh Brolin
Джордж Клуни | George Clooney
Рэйф Файнс | Ralph Fiennes

Скарлетт Йоханссон | Scarlett Johansson
Ченнинг Татум | Channing Tatum
Джона Хилл | Jonah Hill
Тильда Суинтон | Tilda Swinton
Дольф Лундгрен, Кристофер Ламберт, Фрэнсис МакДорманд, Майкл Гэмбон, Вероника Осорио, Олден Эренрайк-ОписаниеДобро пожаловать в Голливуд — империю блеска, роскоши и порока. Здесь обитают кумиры миллионов. Что ни день — пиршество для светских хроникеров. И вот однажды исчезает исполнитель главной роли в фильме «Да здравствует Цезарь!». Ни жена, ни многочисленные любовницы не знают, где он. И теперь продюсера студии ждет веселый денек, ведь он должен найти звезду раньше репортеров…-Сэмпл

IMDb: 6.60 (40 088)
Качество видео: BDRip-AVC HAIL_CAESAR_REMUX_HDCLUB
Формат видео: MKV
Видео: AVC 1613 Kbps 880 x 476 (1.849) 23.976 fps
Аудио 1: 48 kHz, AC3 Dolby Digital, 3/2 (L,C,R,l,r) + LFE ch, 384 kbps Rus iTunes
Формат субтитров: softsub (SRT)

Сравнения

Сравнение с этим релизом

MediaInfo | Log

Log

x264 [info]: frame I:1357 Avg QP:17.23 size: 66534
x264 [info]: frame P:28892 Avg QP:18.39 size: 18947
x264 [info]: frame B:122380 Avg QP:20.77 size: 5526
x264 [info]: consecutive B-frames: 1.4% 1.0% 5.5% 16.3% 18.4% 33.3% 8.9% 4.9% 2.6% 1.7% 1.4% 0.9% 1.3% 1.5% 1.0%
x264 [info]: mb I I16..4: 6.2% 74.5% 19.3%
x264 [info]: mb P I16..4: 1.2% 5.6% 1.2% P16..4: 31.7% 35.4% 15.9% 2.5% 0.3% skip: 6.3%
x264 [info]: mb B I16..4: 0.2% 0.5% 0.1% B16..8: 34.6% 18.7% 3.4% direct: 3.6% skip:38.9% L0:45.5% L1:42.9% BI:11.5%
x264 [info]: 8x8 transform intra:69.3% inter:56.1%
x264 [info]: direct mvs spatial:100.0% temporal:0.0%
x264 [info]: coded y,uvDC,uvAC intra: 83.2% 90.1% 80.0% inter: 17.9% 13.6% 5.1%
x264 [info]: i16 v,h,dc,p: 84% 4% 4% 8%
x264 [info]: i8 v,h,dc,ddl,ddr,vr,hd,vl,hu: 9% 8% 9% 10% 13% 13% 13% 12% 13%
x264 [info]: i4 v,h,dc,ddl,ddr,vr,hd,vl,hu: 11% 9% 6% 9% 14% 14% 13% 11% 13%
x264 [info]: i8c dc,h,v,p: 44% 23% 17% 17%
x264 [info]: Weighted P-Frames: Y:6.0% UV:3.1%
x264 [info]: ref P L0: 43.1% 9.9% 17.9% 6.7% 6.2% 4.1% 4.1% 2.0% 2.2% 1.7% 1.9% 0.1% 0.0%
x264 [info]: ref B L0: 65.5% 13.0% 7.4% 4.0% 3.0% 2.5% 2.1% 1.3% 0.9% 0.4%
x264 [info]: ref B L1: 92.3% 7.7%
x264 [info]: kb/s:1651.26
x264 [total]: encoded 152629 frames, 13.37 fps, 1651.26 kb/s, duration 3:10:14.26
Format : Matroska
Format version : Version 4 / Version 2
File size : 1.51 GiB
Duration : 1h 46mn
Overall bit rate : 2 037 Kbps
Encoded date : UTC 2016-05-29 09:24:07
Writing application : mkvmerge v6.7.0 ('Back to the Ground') 32bit built on Jan 8 2014 15:03:17
Writing library : libebml v1.3.0 + libmatroska v1.4.1
Video
ID : 1
Format : AVC
Format/Info : Advanced Video Codec
Format profile : High@L4.1
Format settings, CABAC : Yes
Format settings, ReFrames : 11 frames
Codec ID : V_MPEG4/ISO/AVC
Duration : 1h 46mn
Bit rate : 1 613 Kbps
Width : 880 pixels
Height : 476 pixels
Display aspect ratio : 1.85:1
Frame rate mode : Constant
Frame rate : 23.976 (24000/1001) fps
Color space : YUV
Chroma subsampling : 4:2:0
Bit depth : 8 bits
Scan type : Progressive
Bits/(Pixel*Frame) : 0.161
Stream size : 1.20 GiB (79%)
Title : Hail, Caesar! (2016) [torrentsland.com.ua]
Writing library : x264 core 148 r2692kMod 64f4e24
Encoding settings : cabac=1 / ref=11 / deblock=1:-2:-2 / analyse=0x3:0x133 / me=umh / subme=11 / psy=1 / fade_compensate=0.00 / psy_rd=1.00:0.05 / mixed_ref=1 / me_range=48 / chroma_me=1 / trellis=2 / 8x8dct=1 / cqm=0 / deadzone=21,11 / fast_pskip=0 / chroma_qp_offset=-3 / threads=12 / lookahead_threads=3 / sliced_threads=0 / nr=0 / decimate=1 / interlaced=0 / bluray_compat=0 / constrained_intra=0 / fgo=0 / bframes=14 / b_pyramid=2 / b_adapt=2 / b_bias=0 / direct=3 / weightb=1 / open_gop=0 / weightp=2 / keyint=250 / keyint_min=23 / scenecut=40 / intra_refresh=0 / rc_lookahead=60 / rc=crf / mbtree=0 / crf=18.7000 / qcomp=0.60 / qpmin=0 / qpmax=69 / qpstep=4 / vbv_maxrate=50000 / vbv_bufsize=62500 / crf_max=0.0 / nal_hrd=none / filler=0 / ip_ratio=1.40 / pb_ratio=1.30 / aq=3:0.90
Language : English
Default : Yes
Forced : No
Audio
ID : 2
Format : AC-3
Format/Info : Audio Coding 3
Mode extension : CM (complete main)
Format settings, Endianness : Big
Codec ID : A_AC3
Duration : 1h 46mn
Bit rate mode : Constant
Bit rate : 384 Kbps
Channel(s) : 6 channels
Channel positions : Front: L C R, Side: L R, LFE
Sampling rate : 48.0 KHz
Frame rate : 31.250 fps (1536 spf)
Compression mode : Lossy
Stream size : 291 MiB (19%)
Title : iTunes
Language : Russian
Default : Yes
Forced : No
Text #1
ID : 3
Format : UTF-8
Codec ID : S_TEXT/UTF8
Codec ID/Info : UTF-8 Plain Text
Title : Forced
Language : Russian
Default : Yes
Forced : No
Text #2
ID : 4
Format : UTF-8
Codec ID : S_TEXT/UTF8
Codec ID/Info : UTF-8 Plain Text
Title : Full
Language : Russian
Default : No
Forced : No
Text #3
ID : 5
Format : UTF-8
Codec ID : S_TEXT/UTF8
Codec ID/Info : UTF-8 Plain Text
Title : Full
Language : English
Default : No
Forced : No
Menu
00:00:00.000 : en:00:00:00.000
00:03:59.322 : en:00:03:59.322
00:09:38.369 : en:00:09:38.369
00:12:58.735 : en:00:12:58.735
00:17:34.173 : en:00:17:34.173
00:22:29.221 : en:00:22:29.221
00:29:55.960 : en:00:29:55.960
00:35:37.425 : en:00:35:37.425
00:41:49.088 : en:00:41:49.088
00:47:09.617 : en:00:47:09.617
00:50:40.746 : en:00:50:40.746
00:57:25.108 : en:00:57:25.108
01:01:17.422 : en:01:01:17.422
01:07:21.911 : en:01:07:21.911
01:14:02.229 : en:01:14:02.229
01:17:41.363 : en:01:17:41.363
01:22:38.703 : en:01:22:38.703
01:28:54.412 : en:01:28:54.412
01:33:50.957 : en:01:33:50.957
01:39:26.417 : en:01:39:26.417

Скриншоты




[Profile]  [PM] 
Display posts:    
Reply to topic

Current time is: 28-Jan 12:58

All times are UTC + 2



You cannot post new topics in this forum
You cannot reply to topics in this forum
You cannot edit your posts in this forum
You cannot delete your posts in this forum
You cannot vote in polls in this forum
You cannot attach files in this forum
You cannot download files in this forum