Миссия в Майами / Ride Along 2 (Тим Стори / Tim Story) [2016, США, боевик, комедия, BDRip] Dub

Reply to topic
 
Author
Message

Satyr ®

Gender: Unknown

Longevity: 11 years

Posts: 15401

Reputation: 55 [+] [-]

Satyr · Post 11-Sep-2016 01:25

[Quote] 

Миссия в Майами / Ride Along 2
Страна: США
Жанр: боевик, комедия
Год выпуска: 2016
Продолжительность: 01:41:30
Перевод: Профессиональный (дублированный)
Cубтитры: нет
Оригинальная аудиодорожка: нет-Режиссер: Тим Стори / Tim Story-В ролях: Айс Кьюб (James Payton), Кевин Харт (Ben Barber), Тика Самптер (Angela Payton), Бенджамин Брэтт (Antonio Pope), Оливия Манн (Maya), Кен Жонг (A.J.), Брюс МакГилл (Lt. Brooks), Майкл Эдвард Роуз (The Hitter / Gates), Шерри Шеперд (Cori), Артуро дель Пуэрто (Alonso), Эрик Гойнс (Assface), Карлос Гомес (Captain Hernandez)-Описание: Накануне собственной свадьбы Бен отправляется с братом своей будущей жены, крутым полицейским Джеймсом, в Майами, чтобы схватить наркодельца.- -Качество видео: BDRip | Blu-Ray Remux (1080p) Кинозал ТВ
Формат видео: AVI
Видео: 688x288 (2.39:1), 23.976 fps, XviD build 73 ~891 kbps avg, 0.19 bit/pixel
Аудио: 48 kHz, MPEG Layer 3, 2 ch, ~128.00 kbps avg-Скачать сэмпл

MediaInfo

Format                      : AVI
Format/Info                 : Audio Video Interleave
File size                   : 747 MiB
Duration                    : 1h 41mn
Overall bit rate            : 1 029 Kbps
Writing application         : VirtualDubMod 1.5.10.3 | www.virtualdub-fr.org || (build 2550/release)
Writing library             : VirtualDubMod build 2550/release
Video
ID                          : 0
Format                      : MPEG-4 Visual
Format profile              : Advanced Simple@L5
Format settings, BVOP       : 1
Format settings, QPel       : No
Format settings, GMC        : No warppoints
Format settings, Matrix     : Custom
Codec ID                    : XVID
Codec ID/Hint               : XviD
Duration                    : 1h 41mn
Bit rate                    : 892 Kbps
Width                       : 688 pixels
Height                      : 288 pixels
Display aspect ratio        : 2.40:1
Frame rate                  : 23.976 (23976/1000) fps
Color space                 : YUV
Chroma subsampling          : 4:2:0
Bit depth                   : 8 bits
Scan type                   : Progressive
Compression mode            : Lossy
Bits/(Pixel*Frame)          : 0.188
Stream size                 : 647 MiB (87%)
Writing library             : XviD 73
Audio
ID                          : 1
Format                      : MPEG Audio
Format version              : Version 1
Format profile              : Layer 3
Codec ID                    : 55
Codec ID/Hint               : MP3
Duration                    : 1h 41mn
Bit rate mode               : Constant
Bit rate                    : 128 Kbps
Channel(s)                  : 2 channels
Sampling rate               : 48.0 KHz
Compression mode            : Lossy
Stream size                 : 92.9 MiB (12%)
Alignment                   : Aligned on interleaves
Interleave, duration        : 42 ms (1.00 video frame)
Interleave, preload duratio : 504 ms
Writing library             : LAME3.99r
Encoding settings           : -m s -V 4 -q 2 -lowpass 17 -b 128

Скриншоты

[Profile]  [PM] 
Display posts:    
Reply to topic

Current time is: 28-Jan 14:32

All times are UTC + 2



You cannot post new topics in this forum
You cannot reply to topics in this forum
You cannot edit your posts in this forum
You cannot delete your posts in this forum
You cannot vote in polls in this forum
You cannot attach files in this forum
You cannot download files in this forum