Черные праздники / Holidays (Энтони Скотт Бёрнс, Кевин Колш, Николас МакКарти / Anthony Scott Burns, Kevin Kolsch, Nicholas McCarthy) [2016, США, ужасы, комедия, WEB-DLRip] DVO (Parovoz Production)

Reply to topic
 
Author
Message

Satyr ®

Gender: Unknown

Longevity: 11 years

Posts: 15401

Reputation: 55 [+] [-]

Satyr · Post 11-Sep-2016 01:26

[Quote] 

Черные праздники / Holidays
Страна: США
Жанр: ужасы, комедия
Год выпуска: 2016
Продолжительность: 01:44:32
Перевод: Любительский (двухголосый закадровый) Parovoz Production
Cубтитры: нет
Оригинальная аудиодорожка: нет
Режиссер: Энтони Скотт Бёрнс, Кевин Колш, Николас МакКарти / Anthony Scott Burns, Kevin Kolsch, Nicholas McCarthy
В ролях: Кевин Смит, Лоренца Иззо, Сет Грин, Клэр Грант, Майкл Гросс, Эндрю Бауэн, Рут Брэдли, Майкл Сунь Ли, Ава Акрес, Джоселин Донахью
Описание: Антология всеми любимых праздников, пропущенных через призму человеческих страхов и предубеждений.
Релиз без рекламы!!!!!!
Видео взято из этой раздачи http://torrentsland.com.ua/forum/viewtopic.php?t=5210865
Сэмпл: http://multi-up.com/1098234
Качество видео: WEB-DLRip
Формат видео: AVI
Видео: Xvid 720x400 23.976fps 1 830 Kbps
Аудио: Dolby AC3 48000Hz stereo 192kbps

MediaInfo

Format : AVI
Format/Info : Audio Video Interleave
File size : 1.48 GiB
Duration : 1h 44mn
Overall bit rate : 2 031 Kbps
Writing application : VirtualDubMod 1.5.10.3 | www.virtualdub-fr.org || (build 2550/release)
Writing library : VirtualDubMod build 2550/release
Video
ID : 0
Format : MPEG-4 Visual
Format profile : Advanced Simple@L5
Format settings, BVOP : Yes
Format settings, QPel : No
Format settings, GMC : No warppoints
Format settings, Matrix : Custom
Codec ID : XVID
Codec ID/Hint : XviD
Duration : 1h 44mn
Bit rate : 1 830 Kbps
Width : 720 pixels
Height : 400 pixels
Display aspect ratio : 16:9
Frame rate : 23.976 fps
Color space : YUV
Chroma subsampling : 4:2:0
Bit depth : 8 bits
Scan type : Progressive
Compression mode : Lossy
Bits/(Pixel*Frame) : 0.265
Stream size : 1.34 GiB (90%)
Writing library : XviD 73
Audio
ID : 1
Format : AC-3
Format/Info : Audio Coding 3
Mode extension : CM (complete main)
Format settings, Endianness : Big
Codec ID : 2000
Duration : 1h 44mn
Bit rate mode : Constant
Bit rate : 192 Kbps
Channel count : 2 channels
Channel positions : Front: L R
Sampling rate : 48.0 KHz
Bit depth : 16 bits
Compression mode : Lossy
Stream size : 144 MiB (9%)
Alignment : Split accross interleaves
Interleave, duration : 42 ms (1.00 video frame)
Interleave, preload duration : 500 ms

Скриншот c названием фильма

Скриншоты

[Profile]  [PM] 
Display posts:    
Reply to topic

Current time is: 19-Sep 10:05

All times are UTC + 2



You cannot post new topics in this forum
You cannot reply to topics in this forum
You cannot edit your posts in this forum
You cannot delete your posts in this forum
You cannot vote in polls in this forum
You cannot attach files in this forum
You cannot download files in this forum