Дочь Бога / Daughter of God / Exposed (Деклан Дэйл / Declan Dale) [2016, США, Драма, BDRip] MVO (Paradox & Omskbird records)

Reply to topic
 
Author
Message

Satyr ®

Online

Gender: Unknown

Longevity: 11 years

Posts: 15401

Reputation: 55 [+] [-]

Satyr · Post 11-Sep-2016 01:27

[Quote] 

Дочь Бога / Daughter of God / Exposed
Страна: США
Жанр: Драма
Год выпуска: 2016
Продолжительность: 01:41:53
Перевод: Любительский (многоголосый закадровый) Paradox & Omskbird records
Перевод: Татьяна Масаковская
Роли озвучивали: Алексей Гнеушев, Павел Ярощик, Максим Максимов, Анна Тух и Ольга Федорова
Звукорежиссер: Павел Квентов
Cубтитры: нет
Режиссер: Деклан Дэйл / Declan Dale
В ролях: Киану Ривз, Ана де Армас, Мира Сорвино, Биг Дэдди Кэйн, Кристофер МакДональд, Лаура Гомез, Мелисса Линтон, Клара Вонг, Майкл Рисполи, Дения Браче...
Описание: С женщиной, которая стала свидетелем чуда, начинают происходить странные вещи. А в это время полицейский детектив пытается разобраться в том, что привело к смерти его напарника.
Сэмпл: http://multi-up.com/1093136
Качество видео: BDRip Blu-Ray (1080p)|kinozal
Формат видео: AVI
Видео: 720x304 (2.37:1), 24 fps, XviD build 73 ~1653 kbps avg, 0.31 bit/pixel
Аудио: 48 kHz, AC3 Dolby Digital, 3/2 (L,C,R,l,r) + LFE ch, ~384 kbps

MediaInfo

Формат : AVI
Формат/Информация : Audio Video Interleave
Размер файла : 1,46 Гбайт
Продолжительность : 1 ч. 41 м.
Общий поток : 2047 Кбит/сек
Программа кодирования : VirtualDubMod 1.5.10.3 | www.virtualdub-fr.org || (build 2550/release)
Библиотека кодирования : VirtualDubMod build 2550/release
Видео
Идентификатор : 0
Формат : MPEG-4 Visual
Профиль формата : Advanced Simple@L5
Параметр BVOP формата : 1
Параметр QPel формата : Нет
Параметр GMC формата : Без точки перехода
Параметр матрицы формата : Выборочная
Идентификатор кодека : XVID
Идентификатор кодека/Подсказка : XviD
Продолжительность : 1 ч. 41 м.
Битрейт : 1654 Кбит/сек
Ширина : 720 пикселей
Высота : 304 пикселя
Соотношение сторон : 2,35:1
Частота кадров : 24,000 кадра/сек
Цветовое пространство : YUV
Субдискретизация насыщенности : 4:2:0
Битовая глубина : 8 бит
Тип развёртки : Прогрессивная
Метод сжатия : С потерями
Бит/(Пиксели*Кадры) : 0.315
Размер потока : 1,18 Гбайт (81%)
Библиотека кодирования : XviD 73
Аудио
Идентификатор : 1
Формат : AC-3
Формат/Информация : Audio Coding 3
Расширение режима : CM (complete main)
Параметр Endianness формата : Big
Идентификатор кодека : 2000
Продолжительность : 1 ч. 41 м.
Вид битрейта : Постоянный
Битрейт : 384 Кбит/сек
Каналы : 6 каналов
Расположение каналов : Front: L C R, Side: L R, LFE
Частота : 48,0 КГц
Частота кадров : 31,250 кадров/сек (1536 spf)
Метод сжатия : С потерями
Размер потока : 280 Мбайт (19%)
Выравнивание : Разделение по промежуткам
Продолжительность промежутка : 42 мс. (1,00 видеокадр)
Время предзагрузки промежутка : 500 мс.

Скриншоты

[Profile]  [PM] 
Display posts:    
Reply to topic

Current time is: 26-Sep 03:48

All times are UTC + 2



You cannot post new topics in this forum
You cannot reply to topics in this forum
You cannot edit your posts in this forum
You cannot delete your posts in this forum
You cannot vote in polls in this forum
You cannot attach files in this forum
You cannot download files in this forum