Пришельцы 3: Взятие Бастилии / Les Visiteurs: La Revolution (Жан-Мари Пуаре / Jean-Marie Poire) [2016, Франция, Комедия, HDRip] Dub

Reply to topic
 
Author
Message

Satyr ®

Gender: Unknown

Longevity: 11 years

Posts: 15401

Reputation: 55 [+] [-]

Satyr · Post 15-Sep-2016 19:55

[Quote] 

Пришельцы 3: Взятие Бастилии / Les Visiteurs: La Revolution
Страна: Франция
Студия: Amazon Studios, Apollo Media, Film Art Media, Screen Australia
Жанр: Комедия
Год выпуска: 2016
Продолжительность: 01:49:29
Перевод: Профессиональный (дублированный) | iTunes
Cубтитры: нет
Режиссер: Жан-Мари Пуаре / Jean-Marie Poire
В ролях: Кристиан Клавье, Жан Рено, Франк Дюбоск, Карин Вьяр, Сильви Тестю, Мари-Анн Шазель, Эри Абиттан, Алекс Лутс, Стефани де Крэенкур, Вероника Буланжер
Описание: Легендарные и любимые миллионами комедии «Пришельцы» и «Пришельцы 2: Коридоры времени» получили свое продолжение. Заключительная часть трилогии будет посвящена приключениям героев Жана Рено и Кристиана Клавье во времени, и на этот раз они попадут в одну из самых ярких эпох – время Великой Французской Революции. «Тот самый» качественный французский юмор, по которому скучали, блестящий актерский состав, пронизанный изящной иронией сценарий дают полное основание полагать, что современное прочтение культовых французских картин не оставит равнодушными ценителей жанра, поклонников легендарных актеров и всех любителей первоклассного европейского кино.

Сэмпл
Релиз от группы MegaPeer
Качество видео: HDRip
Формат видео: AVI
Видео: 688x288 (2.39:1), 24 fps, XviD build 73 ~820 kbps avg, 0.20 bit/pixel
Аудио: 48 kHz, MPEG Layer 3, 2 ch, ~128.00 kbps avg

MediaInfo

ОбщееПолное имя                               : D:\Les.Visiteurs.La.Revolution.HDRip.745MB.MegaPeer.aviФормат                                   : AVIФормат/Информация                        : Audio Video InterleaveРазмер файла                             : 747 МбайтПродолжительность                        : 1 ч. 49 м.Общий поток                              : 954 Кбит/сек
ВидеоИдентификатор : 0Формат : MPEG-4 VisualПрофиль формата : Advanced Simple@L5Параметр BVOP формата : 1Параметр QPel формата : НетПараметр GMC формата : Без точки переходаПараметр матрицы формата : ВыборочнаяИдентификатор кодека : XVIDИдентификатор кодека/Подсказка : XviDПродолжительность : 1 ч. 49 м.Битрейт : 820 Кбит/секШирина : 688 пикселейВысота : 288 пикселейСоотношение сторон : 2,40:1Частота кадров : 24,000 кадра/секЦветовое пространство : YUVСубдискретизация насыщенности : 4:2:0Битовая глубина : 8 битТип развёртки : ПрогрессивнаяМетод сжатия : С потерямиБит/(Пиксели*Кадры) : 0.173Размер потока : 643 Мбайт (86%)Библиотека кодирования : XviD 73
АудиоИдентификатор : 1Формат : MPEG AudioВерсия формата : Version 1Профиль формата : Layer 3Режим : Joint stereoРасширение режима : MS StereoИдентификатор кодека : 55Идентификатор кодека/Подсказка : MP3Продолжительность : 1 ч. 49 м.Вид битрейта : ПостоянныйБитрейт : 128 Кбит/секКаналы : 2 каналаЧастота : 48,0 КГцМетод сжатия : С потерямиРазмер потока : 100 Мбайт (13%)Выравнивание : Соединение по промежуткамПродолжительность промежутка : 167 мс. (4,00 видеокадра)Время предзагрузки промежутка : 216 мс.Заголовок : iTunesБиблиотека кодирования : LAME3.99rНастройки программы : -m j -V 4 -q 2 -lowpass 17 -b 128

Скриншоты

[Profile]  [PM] 
Display posts:    
Reply to topic

Current time is: 28-Jan 14:21

All times are UTC + 2



You cannot post new topics in this forum
You cannot reply to topics in this forum
You cannot edit your posts in this forum
You cannot delete your posts in this forum
You cannot vote in polls in this forum
You cannot attach files in this forum
You cannot download files in this forum