Верхушка айсберга / La punta del iceberg (Дэвид Кановас / David Canovas) [2016, Испания, триллер, HDRip] DVO (L.N and B.D) + Original Spa

Reply to topic
 
Author
Message

Satyr ®

Gender: Unknown

Longevity: 11 years

Posts: 15401

Reputation: 55 [+] [-]

Satyr · Post 30-Sep-2016 08:20

[Quote] 

Верхушка айсберга / La punta del iceberg
Страна: Испания
Жанр: триллер
Год выпуска: 2016
Продолжительность: 01:35:42
Перевод: Любительский (двухголосый закадровый) [L.N and B.D]
Cубтитры: Нет
Оригинальная аудиодорожка: Испанский
Режиссер: Дэвид Кановас / David Canovas
В ролях: Марибель Верду, Фернандо Кайо, Кармело Гомес, Алекс Гарсия, Хинес Гарсия Мильян, Хуан Фернандес, Барбара Гоэнага, Хесус Кастехьон
Описание: В крупной компании происходят одно за другим три самоубийства сотрудников. Руководство поручает Софии Куэвас провести внутреннее расследование и выяснить причины произошедшего.
Доп. информация: Перевод Марии Паниной (Мир испанских сериалов)


Качество видео: HDRip
Формат видео: AVI
Видео: 720x288 (2.50:1), 24 fps, XviD build 67 ~1612 kbps avg, 0.32 bit/pixel
Аудио (Rus): 48 kHz, AC3 Dolby Digital, 2 ch (L,R) ~192 kbps
Аудио (Isp): 48 kHz, AC3 Dolby Digital, 2 ch (L,R) ~192 kbps

MediaInfo

Format : AVI
Format/Info : Audio Video Interleave
File size : 1.34 GiB
Duration : 1h 35mn
Overall bit rate : 2 010 Kbps
Writing application : VirtualDubMod 1.5.10.3 | www.virtualdub-fr.org || (build 2550/release)
Writing library : VirtualDubMod build 2550/release
Video
ID : 0
Format : MPEG-4 Visual
Format profile : Advanced Simple@L5
Format settings, BVOP : 2
Format settings, QPel : No
Format settings, GMC : No warppoints
Format settings, Matrix : Default (MPEG)
Codec ID : XVID
Codec ID/Hint : XviD
Duration : 1h 35mn
Bit rate : 1 612 Kbps
Width : 720 pixels
Height : 288 pixels
Display aspect ratio : 2.500
Frame rate : 24.000 fps
Color space : YUV
Chroma subsampling : 4:2:0
Bit depth : 8 bits
Scan type : Progressive
Compression mode : Lossy
Bits/(Pixel*Frame) : 0.324
Stream size : 1.08 GiB (80%)
Writing library : XviD 67
Audio #1
ID : 1
Format : AC-3
Format/Info : Audio Coding 3
Mode extension : CM (complete main)
Format settings, Endianness : Big
Codec ID : 2000
Duration : 1h 35mn
Bit rate mode : Constant
Bit rate : 192 Kbps
Channel(s) : 2 channels
Channel positions : Front: L R
Sampling rate : 48.0 KHz
Frame rate : 31.250 fps (1536 spf)
Compression mode : Lossy
Stream size : 131 MiB (10%)
Alignment : Split accross interleaves
Interleave, duration : 42 ms (1.00 video frame)
Interleave, preload duratio : 500 ms
Audio #2
ID : 2
Format : AC-3
Format/Info : Audio Coding 3
Mode extension : CM (complete main)
Format settings, Endianness : Big
Codec ID : 2000
Duration : 1h 35mn
Bit rate mode : Constant
Bit rate : 192 Kbps
Channel(s) : 2 channels
Channel positions : Front: L R
Sampling rate : 48.0 KHz
Frame rate : 31.250 fps (1536 spf)
Compression mode : Lossy
Stream size : 131 MiB (10%)
Alignment : Split accross interleaves
Interleave, duration : 42 ms (1.00 video frame)
Interleave, preload duratio : 500 ms

Скриншот c названием фильма

Скриншоты



[Profile]  [PM] 
Display posts:    
Reply to topic

Current time is: 26-Sep 12:00

All times are UTC + 2



You cannot post new topics in this forum
You cannot reply to topics in this forum
You cannot edit your posts in this forum
You cannot delete your posts in this forum
You cannot vote in polls in this forum
You cannot attach files in this forum
You cannot download files in this forum