Равнины Меркурия / Mercury Plains (Чарльз Бурмейстер / Charles Burmeister) [2016, США, Боевик, драма, приключения, криминал, HDRip] MVO (Paradox & Omskbird Records) + Original Eng + Sub (Rus, Eng)

Reply to topic
 
Author
Message

Satyr ®

Gender: Unknown

Longevity: 11 years

Posts: 15401

Reputation: 55 [+] [-]

Satyr · Post 05-Oct-2016 11:10

[Quote] 

Равнины Меркурия / Mercury Plains
Страна: США
Жанр: Боевик, драма, приключения, криминал
Год выпуска: 2016
Продолжительность: 01:42:06
Перевод: Любительский (многоголосый закадровый) Paradox & Omskbird Records
Cубтитры: Русские / Английские (отдельно)
Оригинальная аудиодорожка: Английский
Режиссер: Чарльз Бурмейстер / Charles Burmeister
В ролях: Скотт Иствуд, Анджела Сарафян, Ник Чинланд, Хорхе А. Хименес, Кэтерин Уиллис, Сью Рок, Майк Гассэвей, Кит Поулсон, Марк Хэнсон, Джастин Арнольд
Описание: Митчу Дэвису после ряда серьезных проблем хочется сбежать из родного городка. Если герой это не сделает, попадет в тюрьму или останется нищим. Все богатства Митча — крошечная конура и жалкая подачка от государства. Герой без сожаления расстается с ними и сбегает в Мексику. Как только закончилась пустыня «Равнины Меркурия», началась другая жизнь. В местном баре Дэвис знакомится с законами новой родины. В Мексике благополучно существуют проституция, наркомания, здесь вовсю торгуют оружием. Дэвису с его крутым нравом в Мексике выжить непросто. Тут же в баре герой ввязывается в потасовку и знакомится с главарем банды подростков. Маленькие да удаленькие они грабят наркокартелей, используя солидный арсенал оружия. Митч, заманенный большими деньгами, тут же вливается в бандитский коллектив. Главарь банды не обманул — деньги Митч зарабатывает приличные, вот только на героя и команду открыта охота...
Сэмпл: http://multi-up.com/1121128
Качество видео: HDRip (Исходник Mercury.Plains.2016.BDRip.1080p.mkv)
Формат видео: AVI
Видео: XviD, 720x304, (2,35:1), 23,976 fps, 1631 Кбит/с, 8 бит
Аудио: Русский (АС3, 2 ch (Front: L R), 48,0 KHz, 192 Kbps)
Аудио 2: Английский (АС3, 2 ch (Front: L R), 48,0 KHz, 192 Kbps)

MediaInfo

Общее
Полное имя : F:\Видеофильмы\В и д е о\Равнины_Меркурия_(боевик,драма 2016 год)_Leonard_Lew\Равнины_Меркурия_(боевик,ама 2016 год)_Leonard_Lew.avi
Формат : AVI
Формат/Информация : Audio Video Interleave
Размер файла : 1,45 Гбайт
Продолжительность : 1 ч. 42 м.
Общий поток : 2029 Кбит/сек
Программа кодирования : VirtualDubMod 1.5.10.3 | www.virtualdub-fr.org || (build 2550/release)
Библиотека кодирования : VirtualDubMod build 2550/release
Видео
Идентификатор : 0
Формат : MPEG-4 Visual
Профиль формата : Advanced Simple@L5
Параметр BVOP формата : 2
Параметр QPel формата : Нет
Параметр GMC формата : Без точки перехода
Параметр матрицы формата : Выборочная
Идентификатор кодека : XVID
Идентификатор кодека/Подсказка : XviD
Продолжительность : 1 ч. 42 м.
Битрейт : 1631 Кбит/сек
Ширина : 720 пикселей
Высота : 304 пикселя
Соотношение сторон : 2,35:1
Частота кадров : 23,976 (23976/1000) кадра/сек
Цветовое пространство : YUV
Субдискретизация насыщенности : 4:2:0
Битовая глубина : 8 бит
Тип развёртки : Прогрессивная
Метод сжатия : С потерями
Бит/(Пиксели*Кадры) : 0.311
Размер потока : 1,16 Гбайт (80%)
Библиотека кодирования : XviD 1.2.1 (UTC 2008-12-04)
Аудио #1
Идентификатор : 1
Формат : AC-3
Формат/Информация : Audio Coding 3
Расширение режима : CM (complete main)
Параметр Endianness формата : Big
Идентификатор кодека : 2000
Продолжительность : 1 ч. 42 м.
Вид битрейта : Постоянный
Битрейт : 192 Кбит/сек
Каналы : 2 канала
Расположение каналов : Front: L R
Частота : 48,0 КГц
Частота кадров : 31,250 кадров/сек (1536 spf)
Метод сжатия : С потерями
Размер потока : 140 Мбайт (9%)
Выравнивание : Разделение по промежуткам
Продолжительность промежутка : 42 мс. (1,00 видеокадр)
Время предзагрузки промежутка : 500 мс.
Аудио #2
Идентификатор : 2
Формат : AC-3
Формат/Информация : Audio Coding 3
Расширение режима : CM (complete main)
Параметр Endianness формата : Big
Идентификатор кодека : 2000
Продолжительность : 1 ч. 42 м.
Вид битрейта : Постоянный
Битрейт : 192 Кбит/сек
Каналы : 2 канала
Расположение каналов : Front: L R
Частота : 48,0 КГц
Частота кадров : 31,250 кадров/сек (1536 spf)
Метод сжатия : С потерями
Размер потока : 140 Мбайт (9%)
Выравнивание : Разделение по промежуткам
Продолжительность промежутка : 42 мс. (1,00 видеокадр)
Время предзагрузки промежутка : 500 мс.

Скриншот c названием фильма

Скриншоты

[Profile]  [PM] 
Display posts:    
Reply to topic

Current time is: 22-Jan 15:39

All times are UTC + 2



You cannot post new topics in this forum
You cannot reply to topics in this forum
You cannot edit your posts in this forum
You cannot delete your posts in this forum
You cannot vote in polls in this forum
You cannot attach files in this forum
You cannot download files in this forum