Крейсер / USS Indianapolis: Men of Courage (Марио Ван Пиблз / Mario Van Peebles) [2016, США, Боевик, военный, драма, WEB-DLRip] Dub (iTunes)

Reply to topic
 
Author
Message

Satyr ®

Gender: Unknown

Longevity: 11 years

Posts: 15401

Reputation: 55 [+] [-]

Satyr · Post 15-Oct-2016 00:25

[Quote] 

Крейсер / USS Indianapolis: Men of Courage
Страна: США
Жанр: Боевик, военный, драма
Год выпуска: 2016
Продолжительность: 02:04:34
Перевод: Профессиональный (дублированный) iTunes
Cубтитры: нет
Режиссер: Марио Ван Пиблз / Mario Van Peebles
В ролях: Николас Кейдж, Том Сайзмор, Томас Джейн, Мэтт Лантер, Вероника Розати, Коуди Уокер, Брайан Прэсли, Эмили Теннант, Каллард Харрис, Эмили Мари Палмер
Описание: Президент Трумен доверил капитану Чарльзу Батлеру Маквэю и его команде серьезную миссию, которая должна была окончить бессмысленную войну между Америкой и Японией. 1197 человек крейсера отправляются на далекий остров Тиниан, чтобы доставить туда необходимую часть ядерного оружия под названием "Малыш". Команда все действия выполнила четко и беспрекословно. Сопровождения крейсеру можно не ждать, секретность в этом деле прежде всего. Передвижение корабля держалось в полной тайне, поэтому экипаж оказался легкой добычей японских солдат заметивших крейсер. Два торпедных залпа вражеской подводной лодки забрали сотни жизней, "Индианаполис" пошел ко дну, а те, кто выжил, позавидовали мертвым на дне океана. Пять дней ада без надежды на спасение. Чарльз Батлер не успел отправить сигнал о помощи. Час за часом, день за днем, выжившие наблюдали, как их товарищи шли ко дну умирая страшной смертью, кто-то умер от обезвоживания, а очень многих разорвали акулы, собравшиеся на запах крови. Однако те, кого удалось спасти никогда не расскажут о своем задании, а капитан Маквэй будет обвинен в том, что подверг риску всю команду, хотя и сам чуть не оказался в пасти кровожадной акулы....
Сэмпл: http://multi-up.com/1122705
Качество видео: WEB-DLRip (Исходник KPeYCeP.2016.D.WEB-DL.1080p.mkv / HDClub )
Формат видео: AVI
Видео: XviD, 720x304, (2,35:1), 25,000 fps, 1960 Кбит/с
Аудио: Русский (АС3, 6 ch (Front: L C R, Side: L R, LFE), 48,0 KHz, 384 Kbps)

MediaInfo

Общее
Полное имя : F:\Видеофильмы\В и д е о\Крейсер (военный драма 2016 год).avi
Формат : AVI
Формат/Информация : Audio Video Interleave
Профиль формата : OpenDML
Размер файла : 2,05 Гбайт
Продолжительность : 2 ч. 4 м.
Общий поток : 2357 Кбит/сек
Программа кодирования : VirtualDubMod 1.5.10.3 | www.virtualdub-fr.org || (build 2550/release)
Библиотека кодирования : VirtualDubMod build 2550/release
Видео
Идентификатор : 0
Формат : MPEG-4 Visual
Профиль формата : Advanced Simple@L5
Параметр BVOP формата : 2
Параметр QPel формата : Нет
Параметр GMC формата : Без точки перехода
Параметр матрицы формата : Выборочная
Идентификатор кодека : XVID
Идентификатор кодека/Подсказка : XviD
Продолжительность : 2 ч. 4 м.
Битрейт : 1960 Кбит/сек
Ширина : 720 пикселей
Высота : 304 пикселя
Соотношение сторон : 2,35:1
Частота кадров : 25,000 кадров/сек
Цветовое пространство : YUV
Субдискретизация насыщенности : 4:2:0
Битовая глубина : 8 бит
Тип развёртки : Прогрессивная
Метод сжатия : С потерями
Бит/(Пиксели*Кадры) : 0.358
Размер потока : 1,71 Гбайт (83%)
Библиотека кодирования : XviD 1.2.1 (UTC 2008-12-04)
Аудио
Идентификатор : 1
Формат : AC-3
Формат/Информация : Audio Coding 3
Расширение режима : CM (complete main)
Параметр Endianness формата : Big
Идентификатор кодека : 2000
Продолжительность : 2 ч. 4 м.
Вид битрейта : Постоянный
Битрейт : 384 Кбит/сек
Каналы : 6 каналов
Расположение каналов : Front: L C R, Side: L R, LFE
Частота : 48,0 КГц
Частота кадров : 31,250 кадров/сек (1536 spf)
Метод сжатия : С потерями
Размер потока : 342 Мбайт (16%)
Выравнивание : Разделение по промежуткам
Продолжительность промежутка : 40 мс. (1,00 видеокадр)
Время предзагрузки промежутка : 500 мс.

Скриншот c названием фильма

[Profile]  [PM] 
Display posts:    
Reply to topic

Current time is: 27-Sep 11:39

All times are UTC + 2



You cannot post new topics in this forum
You cannot reply to topics in this forum
You cannot edit your posts in this forum
You cannot delete your posts in this forum
You cannot vote in polls in this forum
You cannot attach files in this forum
You cannot download files in this forum