Секреты секса и любви / Kiki, el amor se hace (Пако Леон / Paco León) [2016, Испания, Комедия, HDRip] Dub (iTunes)

Reply to topic
 
Author
Message

Satyr ®

Gender: Unknown

Longevity: 11 years

Posts: 15401

Reputation: 55 [+] [-]

Satyr · Post 17-Oct-2016 21:50

[Quote] 

Секреты секса и любви / Kiki, el amor se hace
Страна: Испания
Студия: Instituto de la Cinematografía y de las Artes Audiovisuales (ICAA), Telecinco Cinema
Жанр: Комедия
Год выпуска: 2016
Продолжительность: 01:42:05
Перевод: Профессиональный (дублированный) iTunes
Cубтитры: нет
Режиссер: Пако Леон / Paco León
В ролях: Наталия де Молина, Алекс Гарсия, Джакобо Санчес, Сильвия Рей, Пако Леон, Ана Кац, Белен Куэста, Кандела Пенья, Луис Кальехо
Описание: Жарким летом в Мадриде пять пар в томлении страсти открывают для себя весьма неожиданные формы сексуального влечения. Изумление и страх перед неведомыми удовольствиями сменяются неконтролируемым желанием. Табу рушатся, и теперь ничто не в силах удержать героев от любовных экспериментов.

Релиз от группы MegaPeer
Сэмпл
Качество видео: HDRip / Исх. Kiki.El.Amor.Se.Hace.2016.BDRip.1080p.ExKinoRay
Формат видео: AVI
Видео: 720x304 (2.37:1), 24 fps, XviD build 73 ~ 1651 kbps, 0.39 bit/pixel
Аудио: 48 kHz, AC3, 6 ch, 384 kbps-

MediaInfo

ОбщееПолное имя                               : D:\Quickie.Love.Is.So.2016.HDRip.1.46Gb.MegaPeer.aviФормат                                   : AVIФормат/Информация                        : Audio Video InterleaveРазмер файла                             : 1,46 ГбайтПродолжительность                        : 1 ч. 42 м.Общий поток                              : 2044 Кбит/сек
ВидеоИдентификатор : 0Формат : MPEG-4 VisualПрофиль формата : Advanced Simple@L5Параметр BVOP формата : 1Параметр QPel формата : НетПараметр GMC формата : Без точки переходаПараметр матрицы формата : ВыборочнаяИдентификатор кодека : XVIDИдентификатор кодека/Подсказка : XviDПродолжительность : 1 ч. 42 м.Битрейт : 1652 Кбит/секШирина : 720 пикселейВысота : 304 пикселяСоотношение сторон : 2,35:1Частота кадров : 24,000 кадра/секЦветовое пространство : YUVСубдискретизация насыщенности : 4:2:0Битовая глубина : 8 битТип развёртки : ПрогрессивнаяМетод сжатия : С потерямиБит/(Пиксели*Кадры) : 0.314Размер потока : 1,18 Гбайт (81%)Библиотека кодирования : XviD 73
АудиоИдентификатор : 1Формат : AC-3Формат/Информация : Audio Coding 3Расширение режима : CM (complete main)Параметр Endianness формата : BigИдентификатор кодека : 2000Продолжительность : 1 ч. 42 м.Вид битрейта : ПостоянныйБитрейт : 384 Кбит/секКаналы : 6 каналовРасположение каналов : Front: L C R, Side: L R, LFEЧастота : 48,0 КГцЧастота кадров : 31,250 кадров/сек (1536 spf)Метод сжатия : С потерямиРазмер потока : 280 Мбайт (19%)Выравнивание : Соединение по промежуткамПродолжительность промежутка : 64 мс. (1,54 видеокадра)Время предзагрузки промежутка : 192 мс.Заголовок : iTunes

Скриншоты

-
[Profile]  [PM] 
Display posts:    
Reply to topic

Current time is: 25-Sep 05:03

All times are UTC + 2



You cannot post new topics in this forum
You cannot reply to topics in this forum
You cannot edit your posts in this forum
You cannot delete your posts in this forum
You cannot vote in polls in this forum
You cannot attach files in this forum
You cannot download files in this forum