Стартрек: Бесконечность / Star Trek Beyond (Джастин Лин) [2016 г., Фантастика, боевик, триллер, приключения, HDRip] Dub |iTunes

Reply to topic
 
Author
Message

groozin ®

Gender: Male

Longevity: 4 years

Posts: 45

Reputation: 0 [+] [-]

Location: ЛНР

groozin · Post 19-Oct-2016 09:15

[Quote] 

Стартрек: Бесконечность
/ Star Trek Beyond
-
Год выпуска: 2016
Страна: США / Bad Robot, Paramount Pictures, Perfect Storm Entertainment, Skydance Productions, Sneaky Shark
Жанр: Фантастика, боевик, триллер, приключения
Продолжительность: 02:02:22
Перевод: Дублированный |iTunes|
Режиссер: Джастин Лин
В ролях: Крис Пайн, Закари Куинто, Саймон Пегг, Карл Урбан, Зои Салдана, Джон Чо, Антон Ельчин, Идрис Эльба, София Бутелла, Джо Таслим

Описание:
Через два года после начала очередной космической миссии команда «Энтерпрайза» сталкивается с испытанием, перед которым меркнут все предыдущие приключения отважного экипажа. После атаки неопознанных врагов корабль терпит бедствие на таинственной, затерянной в глубинах пространства планете. Оказавшись на краю Вселенной, лишенные помощи Федерации, капитан Кирк и его товарищи узнают о существовании чудовищного оружия, угрожающего обитаемым планетным системам.
- -16+         Рейтинг R- зрителям, достигшим 16 лет-Релиз без рекламы!!!

MediaInfo:

Общее
Полное имя : E:\TORRENTY\Films\Startrek.Beskonechnoct'.2016.HDRip.1400MB\Startrek.Beskonechnoct'.2016.HDRip.1400MB\Startrek.Beskonechnoct'.2016.HDRip.1400MB.avi
Формат : AVI
Формат/Информация : Audio Video Interleave
Размер файла : 1,37 Гбайт
Продолжительность : 2 ч. 2 м.
Общий поток : 1599 Кбит/сек
Программа кодирования : VirtualDubMod 1.5.10.2 (build 2540/release)
Библиотека кодирования : VirtualDubMod build 2540/release
Видео
Идентификатор : 0
Формат : MPEG-4 Visual
Профиль формата : Advanced Simple@L5
Параметр BVOP формата : 2
Параметр QPel формата : Нет
Параметр GMC формата : Без точки перехода
Параметр матрицы формата : Default (MPEG)
Идентификатор кодека : XVID
Идентификатор кодека/Подсказка : XviD
Продолжительность : 2 ч. 2 м.
Битрейт : 1206 Кбит/сек
Ширина : 720 пикселей
Высота : 304 пикселя
Соотношение сторон : 2,35:1
Частота кадров : 23,976 (24000/1001) кадра/сек
Цветовое пространство : YUV
Субдискретизация насыщенности : 4:2:0
Битовая глубина : 8 бит
Тип развёртки : Прогрессивная
Метод сжатия : С потерями
Бит/(Пиксели*Кадры) : 0.230
Размер потока : 1,03 Гбайт (75%)
Библиотека кодирования : XviD 1.2.1 (UTC 2008-12-04)
Аудио
Идентификатор : 1
Формат : AC-3
Формат/Информация : Audio Coding 3
Расширение режима : CM (complete main)
Параметр Endianness формата : Big
Идентификатор кодека : 2000
Продолжительность : 2 ч. 2 м.
Вид битрейта : Постоянный
Битрейт : 384 Кбит/сек
Каналы : 6 каналов
Расположение каналов : Front: L C R, Side: L R, LFE
Частота : 48,0 КГц
Частота кадров : 31,250 кадров/сек (1536 spf)
Метод сжатия : С потерями
Размер потока : 336 Мбайт (24%)
Выравнивание : Разделение по промежуткам
Продолжительность промежутка : 42 мс. (1,00 видеокадр)
Время предзагрузки промежутка : 500 мс.
Качество: HDRip
Формат: AVI
Данные видео: 720x304, XviD, 1206 Kbps, 23,976 fps, 0.230 Бит/(Пиксели*Кадры)
Аудио: русский: AC3, 384 Kbps, 6 ch, 48 kHz

Скриншоты


[Profile]  [PM] 
Display posts:    
Reply to topic

Current time is: 25-Sep 05:48

All times are UTC + 2



You cannot post new topics in this forum
You cannot reply to topics in this forum
You cannot edit your posts in this forum
You cannot delete your posts in this forum
You cannot vote in polls in this forum
You cannot attach files in this forum
You cannot download files in this forum