Афера под прикрытием / The Infiltrator (Брэд Фурман / Brad Furman) [2016, Великобритания, триллер, драма, криминал, BDRip-AVC] VO (А. Киреев) + Original + Sub (eng)

Reply to topic
 
Author
Message

Satyr ®

Gender: Unknown

Longevity: 11 years

Posts: 15401

Reputation: 55 [+] [-]

Satyr · Post 19-Oct-2016 11:10

[Quote] 

Афера под прикрытием / The Infiltrator«The true story of one man against the biggest drug cartel in history»- Страна: Великобритания
Жанр: триллер, драма, криминал, биография
Год выпуска: 2016
Продолжительность: 02:07:08
Перевод: Одноголосый закадровый (Антон Киреев) [ненормативная лексика]
Оригинальная аудиодорожка: английский
Субтитры: английские
Навигация по главам: есть
Режиссер: Брэд Фурман / Brad Furman
В ролях: Брайан Крэнстон (Robert Mazur), Лиэнн Бест (Bowling Alley Waitress), Дэниэл Мейс (Frankie), Том Вон-Лолор (Steve Cook), Ниал Хэйес (Scott Mazur), Лара Дэкаро (Andrea Mazur), Джульетт Обри (Evelyn Mazur), Олимпия Дукакис (Aunt Vicky), Эми Райан (Bonni Tischler), Джон Легуизамо (Emir Abreu), Джозеф Гилган (Dominic), Джейсон Айзекс (Mark Jackowski)
Описание: Федеральный агент Боб Мейзур, специалист по внедрению в преступные группировки, ставит себе целью раскрыть схему отмывания денег наркокартеля Пабло Эскобара. В одной команде со вспыльчивым оперативником Эмиром Абреу, а также начинающим агентом Кэти Эртс, исполняющей роль подставной невесты Боба, ему предстоит провернуть самую рискованную операцию под прикрытием в истории.- -Качество: BDRip-AVC (исходник - BDRemux|The.Infiltrator.2016.REMUX.1080p.BluRay.AVC.DTS-HD.MA5.1-iFT)
Формат видео: MKV
Видео: x264, 1072x448 (2.40:1) 23,976 fps, ~2578 kbps, 0.224 bit/pixel
Аудио 1: 48 kHz, AC3 Dolby Digital, 3/2 (L,C,R,l,r) + LFE ch, ~448 kbps [русский]
Аудио 2: 48 kHz, AC3 Dolby Digital, 2/0 (L,R) ch, ~192 kbps [английский]
Формат субтитров: softsub (SRT)-

MediaInfo | x264 log

Format : Matroska
Format version : Version 4 / Version 2
File size : 2.92 GiB
Duration : 2 h 7 min
Overall bit rate : 3 283 kb/s
Movie name : Афера под прикрытием / The Infiltrator (2016) :: AFM ::
Encoded date : UTC 2016-10-18 08:47:32
Writing application : mkvmerge v8.3.0 ('Over the Horizon') 32bit
Writing library : libebml v1.3.1 + libmatroska v1.4.2
Video
ID : 1
Format : AVC
Format/Info : Advanced Video Codec
Format profile : High@L4.1
Format settings, CABAC : Yes
Format settings, ReFrames : 12 frames
Codec ID : V_MPEG4/ISO/AVC
Duration : 2 h 7 min
Bit rate : 2 578 kb/s
Width : 1 072 pixels
Height : 448 pixels
Display aspect ratio : 2.40:1
Frame rate mode : Constant
Frame rate : 23.976 (24000/1001) FPS
Color space : YUV
Chroma subsampling : 4:2:0
Bit depth : 8 bits
Scan type : Progressive
Bits/(Pixel*Frame) : 0.224
Stream size : 2.29 GiB (79%)
Title : BDRip by AFM
Writing library : x264 core 148 r2705+54 9f484c1 t_mod_Custom [8-bit@all X86_64]
Encoding settings : cabac=1 / ref=12 / deblock=1:-2:-2 / analyse=0x3:0x133 / me=umh / subme=11 / psy=1 / fade_compensate=0.00 / psy_rd=1.00:0.00 / mixed_ref=1 / me_range=32 / chroma_me=1 / trellis=2 / 8x8dct=1 / cqm=0 / deadzone=21,11 / fast_pskip=0 / chroma_qp_offset=-2 / threads=6 / lookahead_threads=1 / sliced_threads=0 / nr=0 / decimate=1 / interlaced=0 / bluray_compat=0 / constrained_intra=0 / fgo=0 / bframes=15 / b_pyramid=2 / b_adapt=2 / b_bias=0 / direct=1 / weightb=1 / open_gop=0 / weightp=2 / keyint=250 / keyint_min=23 / scenecut=40 / intra_refresh=0 / rc_lookahead=40 / rc=crf / mbtree=0 / crf=19.6000 / qcomp=0.65 / qpmin=0:0:0 / qpmax=69:69:69 / qpstep=4 / vbv_maxrate=50000 / vbv_bufsize=62500 / crf_max=0.0 / nal_hrd=none / filler=0 / ip_ratio=1.35 / pb_ratio=1.30 / aq=3:0.80 / aq-sensitivity=10.00 / aq-factor=1.00:1.00:1.00 / aq2=0 / aq3=0 / zones=175570,182903,q=30
Language : English
Default : Yes
Forced : No
Audio #1
ID : 2
Format : AC-3
Format/Info : Audio Coding 3
Mode extension : CM (complete main)
Format settings, Endianness : Big
Codec ID : A_AC3
Duration : 2 h 7 min
Bit rate mode : Constant
Bit rate : 448 kb/s
Channel(s) : 6 channels
Channel positions : Front: L C R, Side: L R, LFE
Sampling rate : 48.0 kHz
Frame rate : 31.250 FPS (1536 spf)
Compression mode : Lossy
Stream size : 407 MiB (14%)
Title : VO (Kireev) AC3 5.1 ~448 kbps
Language : Russian
Default : Yes
Forced : No
Audio #2
ID : 3
Format : AC-3
Format/Info : Audio Coding 3
Mode extension : CM (complete main)
Format settings, Endianness : Big
Codec ID : A_AC3
Duration : 2 h 7 min
Bit rate mode : Constant
Bit rate : 192 kb/s
Channel(s) : 2 channels
Channel positions : Front: L R
Sampling rate : 48.0 kHz
Frame rate : 31.250 FPS (1536 spf)
Compression mode : Lossy
Stream size : 175 MiB (6%)
Title : Original, AC3 2.0 ~192 kbps
Language : English
Default : No
Forced : No
Text
ID : 4
Format : UTF-8
Codec ID : S_TEXT/UTF8
Codec ID/Info : UTF-8 Plain Text
Language : English
Default : No
Forced : No
Menu
00:00:00.000 : en:Chapter 01
00:09:01.666 : en:Chapter 02
00:17:00.686 : en:Chapter 03
00:24:48.653 : en:Chapter 04
00:28:36.881 : en:Chapter 05
00:35:12.193 : en:Chapter 06
00:42:31.340 : en:Chapter 07
00:51:42.724 : en:Chapter 08
00:57:40.832 : en:Chapter 09
01:02:47.805 : en:Chapter 10
01:07:41.474 : en:Chapter 11
01:17:04.661 : en:Chapter 12
01:24:18.553 : en:Chapter 13
01:31:43.831 : en:Chapter 14
01:40:58.969 : en:Chapter 15
01:47:44.249 : en:Chapter 16
01:52:50.221 : en:Chapter 17
01:58:14.128 : en:Chapter 18
02:07:08.370 : en:Chapter 19

x264

x264 [info]: frame I:1339 Avg QP:19.13 size: 58407
x264 [info]: frame P:35240 Avg QP:20.57 size: 26059
x264 [info]: frame B:146324 Avg QP:22.49 size: 10403
x264 [info]: consecutive B-frames: 1.5% 1.4% 5.0% 14.7% 15.3% 44.2% 5.6% 1.5% 1.9% 4.5% 1.2% 1.2% 0.9% 0.6% 0.3% 0.2%
x264 [info]: mb I I16..4: 6.9% 76.7% 16.3%
x264 [info]: mb P I16..4: 0.9% 13.7% 1.3% P16..4: 30.6% 33.6% 11.8% 1.4% 0.1% skip: 6.6%
x264 [info]: mb B I16..4: 0.1% 2.3% 0.1% B16..8: 36.2% 16.9% 3.3% direct: 4.7% skip:36.3% L0:44.3% L1:45.9% BI: 9.8%
x264 [info]: 8x8 transform intra:87.6% inter:64.3%
x264 [info]: coded y,uvDC,uvAC intra: 91.4% 87.6% 63.9% inter: 25.0% 20.9% 3.6%
x264 [info]: i16 v,h,dc,p: 29% 17% 6% 49%
x264 [info]: i8 v,h,dc,ddl,ddr,vr,hd,vl,hu: 8% 6% 12% 10% 14% 13% 13% 12% 12%
x264 [info]: i4 v,h,dc,ddl,ddr,vr,hd,vl,hu: 9% 10% 5% 9% 15% 15% 13% 11% 12%
x264 [info]: i8c dc,h,v,p: 36% 23% 19% 22%
x264 [info]: Weighted P-Frames: Y:5.7% UV:4.0%
x264 [info]: ref P L0: 46.7% 10.9% 17.2% 6.0% 5.1% 3.5% 3.2% 1.7% 1.7% 1.3% 1.4% 1.2% 0.1% 0.0%
x264 [info]: ref B L0: 73.8% 10.9% 5.6% 2.8% 2.0% 1.6% 1.3% 0.8% 0.7% 0.4% 0.2%
x264 [info]: ref B L1: 93.8% 6.2%
x264 [info]: kb/s:2641.33

Скриншоты

с названием

[Profile]  [PM] 
Display posts:    
Reply to topic

Current time is: 27-Sep 12:40

All times are UTC + 2



You cannot post new topics in this forum
You cannot reply to topics in this forum
You cannot edit your posts in this forum
You cannot delete your posts in this forum
You cannot vote in polls in this forum
You cannot attach files in this forum
You cannot download files in this forum