31: Праздник смерти / 31 (Роб Зомби / Rob Zombie) [2016, США, Великобритания, ужасы, триллер, WEB-DLRip] MVO (iTunes)

Reply to topic
 
Author
Message

Satyr ®

Gender: Unknown

Longevity: 11 years

Posts: 15401

Reputation: 55 [+] [-]

Satyr · Post 19-Oct-2016 15:15

[Quote] 

31: Праздник смерти / 31
Страна: США, Великобритания
Жанр: ужасы, триллер
Год выпуска: 2016
Продолжительность: 01:38:21
Перевод: Профессиональный (многоголосый закадровый) iTunes
Cубтитры: нет
Оригинальная аудиодорожка: нет-Режиссер: Роб Зомби / Rob Zombie-В ролях: Шери Мун Зомби, Джеффри Дэниэл Филлипс, Лоуренс Хилтон-Джакобс, Мег Фостер, Кевин Джексон, Малкольм МакДауэлл, Джейн Карр, Джуди Гисон, Ричард Брэйк, Панчо Молер-Описание: Кровавая, можно даже сказать «мясная» история, о том, как однажды группа из пятерых музыкантов попалась в руки самым настоящим психопатам. У психов есть одна забава, каждый год, за несколько дней до Хэллоуина, они выбирают жертвы и устраивают им игру под названием «31». Суть игры заключается в том, что людей помещают в лабиринт с ловушками, построенный самыми маньяками и несчастным жертвам необходимо приложить максимум усилий к своему выживанию на протяжении 12 часов. В то же время маньяки начинают на них свою кровавую охоту...- -Качество видео: WEB-DLRip | 31 (2016) 720p WEB-DL HDClub
Формат видео: AVI
Видео: 688x288 (2.39:1), 25 fps, XviD build 73 ~920 kbps avg, 0.19 bit/pixel
Аудио: 48 kHz, MPEG Layer 3, 2 ch, ~128.00 kbps avg-Скачать сэмпл-

MediaInfo

Формат                                   : AVI
Формат/Информация                        : Audio Video Interleave
Размер файла                             : 745 Мбайт
Продолжительность                        : 1 ч. 38 м.
Общий поток                              : 1058 Кбит/сек
Программа кодирования                    : VirtualDubMod 1.5.10.3 | www.virtualdub-fr.org || (build 2550/release)
Библиотека кодирования                   : VirtualDubMod build 2550/release
Видео
Идентификатор                            : 0
Формат                                   : MPEG-4 Visual
Профиль формата                          : Advanced Simple@L5
Параметр BVOP формата                    : 1
Параметр QPel формата                    : Нет
Параметр GMC формата                     : Без точки перехода
Параметр матрицы формата                 : Выборочная
Идентификатор кодека                     : XVID
Идентификатор кодека/Подсказка           : XviD
Продолжительность                        : 1 ч. 38 м.
Битрейт                                  : 921 Кбит/сек
Ширина                                   : 688 пикселей
Высота                                   : 288 пикселей
Соотношение сторон                       : 2,40:1
Частота кадров                           : 25,000 кадров/сек
Цветовое пространство                    : YUV
Субдискретизация насыщенности            : 4:2:0
Битовая глубина                          : 8 бит
Тип развёртки                            : Прогрессивная
Метод сжатия                             : С потерями
Бит/(Пиксели*Кадры)                      : 0.186
Размер потока                            : 648 Мбайт (87%)
Библиотека кодирования                   : XviD 73
Аудио
Идентификатор                            : 1
Формат                                   : MPEG Audio
Версия формата                           : Version 1
Профиль формата                          : Layer 3
Идентификатор кодека                     : 55
Идентификатор кодека/Подсказка           : MP3
Продолжительность                        : 1 ч. 38 м.
Вид битрейта                             : Постоянный
Битрейт                                  : 128 Кбит/сек
Каналы                                   : 2 канала
Частота                                  : 48,0 КГц
Метод сжатия                             : С потерями
Размер потока                            : 90,1 Мбайт (12%)
Выравнивание                             : Соединение по промежуткам
Продолжительность промежутка             : 40  мс. (1,00 видеокадр)
Время предзагрузки промежутка            : 504  мс.
Библиотека кодирования                   : LAME3.99r
Настройки программы                      : -m s -V 4 -q 2 -lowpass 17 -b 128

Скриншоты

[Profile]  [PM] 
Display posts:    
Reply to topic

Current time is: 25-Sep 00:21

All times are UTC + 2



You cannot post new topics in this forum
You cannot reply to topics in this forum
You cannot edit your posts in this forum
You cannot delete your posts in this forum
You cannot vote in polls in this forum
You cannot attach files in this forum
You cannot download files in this forum