Афера под прикрытием / The Infiltrator (Брэд Фурман / Brad Furman) [2016, Великобритания, Триллер, драма, криминал, биография, BDRip] VO (Антон Киреев)

Reply to topic
 
Author
Message

Satyr ®

Gender: Unknown

Longevity: 11 years

Posts: 15401

Reputation: 55 [+] [-]

Satyr · Post 20-Oct-2016 23:55

[Quote] 

Афера под прикрытием / The Infiltrator-«The true story of one man against the biggest drug cartel in history»- Страна: Великобритания
Жанр: Триллер, драма, криминал, биография
Год выпуска: 2016
Продолжительность: 02:07:08-Перевод: Одноголосый закадровый - (Антон Киреев)
Cубтитры: нет-Режиссер: Брэд Фурман / Brad Furman-В ролях: Брайан Крэнстон, Лиэнн Бест, Дэниэл Мейс, Том Вон-Лолор, Ниал Хэйес, Лара Дэкаро, Джульетт Обри, Олимпия Дукакис, Эми Райан, Джон Легуизамо-Описание: Федеральный агент Боб Мейзур, специалист по внедрению в преступные группировки, ставит себе целью раскрыть схему отмывания денег наркокартеля Пабло Эскобара. В одной команде со вспыльчивым оперативником Эмиром Абреу, а также начинающим агентом Кэти Эртс, исполняющей роль подставной невесты Боба, ему предстоит провернуть самую рискованную операцию под прикрытием в истории.- - / -Релиз: Twi7ter & ExKinoRay-Качество видео: BDRip | исх. The.Infiltrator.2016.REMUX.1080p.BluRay.AVC.DTS-HD.MA5.1-iFT |
Формат видео: AVI-Видео: 720x304 (2.35:1), 23.976 fps, XviD build 73, 1901 kbps, 0.36 bit/pixel
Аудио: 48 kHz, AC3 Dolby Digital, 2/0 (L,R) ch, 192 kbps

MediaInfo

General
Complete name : Downloads\Afera.pod.prikrytiem.2016.A.BDRip.1.46Gb_ExKinoRay_by_Twi7ter.avi
Format : AVI
Format/Info : Audio Video Interleave
Overall bit rate : 2 105 Kbps
Genre : Thriller/Drama/Crime
Writing application : VirtualDubMod 1.5.10.3 (build 2550/release)
Writing library : VirtualDubMod build 2550/release
Original source form/Name : Movie
Video #0
ID : 0
Format : MPEG-4 Visual
Format profile : Advanced Simple@L5
Format settings, BVOP : 2
Format settings, QPel : No
Format settings, GMC : No warppoints
Format settings, Matrix : Custom
Codec ID : XVID
Codec ID/Hint : XviD
Duration : 37s 246ms
Bit rate : 1 901 Kbps
Width : 720 pixels
Height : 304 pixels
Display aspect ratio : 2.35:1
Frame rate : 23.976 fps
Color space : YUV
Chroma subsampling : 4:2:0
Bit depth : 8 bits
Scan type : Progressive
Compression mode : Lossy
Bits/(Pixel*Frame) : 0.362
Stream size : 8.44 MiB (90%)
Writing library : XviD 73
Audio #1
ID : 1
Format : AC-3
Format/Info : Audio Coding 3
Mode extension : CM (complete main)
Format settings, Endianness : Big
Codec ID : 2000
Duration : 37s 246ms
Bit rate mode : Constant
Bit rate : 192 Kbps
Channel(s) : 2 channels
Channel positions : Front: L R
Sampling rate : 48.0 KHz
Bit depth : 16 bits
Compression mode : Lossy
Delay relative to video : 18ms
Stream size : 873 KiB (9%)
Alignment : Split accross interleaves
Interleave, duration : 42 ms (1.01 video frame)
Interleave, preload duration : 500 ms

Скриншот c названием фильма

Скриншоты

Релиз без рекламы.
[Profile]  [PM] 
Display posts:    
Reply to topic

Current time is: 22-Jan 15:45

All times are UTC + 2



You cannot post new topics in this forum
You cannot reply to topics in this forum
You cannot edit your posts in this forum
You cannot delete your posts in this forum
You cannot vote in polls in this forum
You cannot attach files in this forum
You cannot download files in this forum