Материнская рана / Annemin Yarasi (Озан Ачыктан / Ozan Aciktan) [2016, Турция, Босния и Герцеговина, Сербия и Черногория, драма, детектив, военный, WEB-DLRip] VO (turok1990)

Reply to topic
 
Author
Message

Satyr ®

Gender: Unknown

Longevity: 11 years

Posts: 15401

Reputation: 55 [+] [-]

Satyr · Post 27-Oct-2016 12:00

[Quote] 

Материнская рана / Annemin Yarasi
Страна: Турция, Босния и Герцеговина, Сербия и Черногория
Жанр: драма, детектив, военный
Год выпуска: 2016
Продолжительность: 01:54:54
Перевод: Одноголосый закадровый (turok1990)
Cубтитры: нет
Оригинальная аудиодорожка: нет
Режиссер: Озан Ачыктан / Ozan Aciktan
В ролях: Мерьем Узерли, Озан Гювен, Окан Ялабык, Бельчим Билгин, Бора Аккаш, Мехмет Эрген
Описание: Салиху, как и многим воспитанникам детского дома, очень хотелось узнать правду о своей семье, найти родных и близких. Когда ему исполнилось 18 лет, он покинул приют, для него началась совсем новая, неизведанная взрослая жизнь в большом мире, где нет постоянной опеки со стороны воспитателей. Салиху надо на что-то жить, чем-то заниматься. Он устраивается работать к одному фермеру, постигает сложности ведения хозяйства. Кто вырос в деревне, тот знает, что там всегда есть, чем заняться. Салих начинает поиски родных. Его ждут удивительные открытия, и правда окажется несколько иной, чем он предполагал, находясь в приюте.
Сэмпл: http://multi-up.com/1124578
Качество видео: WEB-DLRip
Формат видео: AVI
Видео: MPEG-4 Visual, XviD, 1618 Кбит/с, 25.000 fps, 720x384, Bits/(Pixel*Frame)-0.234
Аудио: MP3, 192 Kbps, 44.1 KHz, 2 ch - Русский

MediaInfo

Annemin.Yarasi.2016.XviD.WEB-DLRip.avi
Format : AVI
Format/Info : Audio Video Interleave
File size : 1.46 GiB
Duration : 1h 54mn
Overall bit rate : 1 819 Kbps
Writing application : Lavf53.13.0
Writing library : VirtualDub build 32842/release
Video
ID : 0
Format : MPEG-4 Visual
Format profile : Advanced Simple@L5
Format settings, BVOP : 2
Format settings, QPel : No
Format settings, GMC : No warppoints
Format settings, Matrix : Default (H.263)
Codec ID : XVID
Codec ID/Hint : XviD
Duration : 1h 54mn
Bit rate : 1 618 Kbps
Width : 720 pixels
Height : 384 pixels
Display aspect ratio : 1.85:1
Frame rate : 25.000 fps
Color space : YUV
Chroma subsampling : 4:2:0
Bit depth : 8 bits
Scan type : Progressive
Compression mode : Lossy
Bits/(Pixel*Frame) : 0.234
Stream size : 1.30 GiB (89%)
Writing library : XviD 1.2.1 (UTC 2008-12-04)
Audio
ID : 1
Format : MPEG Audio
Format version : Version 1
Format profile : Layer 3
Codec ID : 55
Codec ID/Hint : MP3
Duration : 1h 54mn
Bit rate mode : Constant
Bit rate : 192 Kbps
Channel(s) : 2 channels
Sampling rate : 44.1 KHz
Compression mode : Lossy
Delay relative to video : 7ms
Stream size : 158 MiB (11%)
Alignment : Split accross interleaves
Interleave, duration : 40 ms (1.00 video frame)
Interleave, preload duration : 500 ms
Writing library : LAME3.99.1

Скриншот c названием фильма

Скриншоты

[Profile]  [PM] 
Display posts:    
Reply to topic

Current time is: 18-Sep 15:08

All times are UTC + 2



You cannot post new topics in this forum
You cannot reply to topics in this forum
You cannot edit your posts in this forum
You cannot delete your posts in this forum
You cannot vote in polls in this forum
You cannot attach files in this forum
You cannot download files in this forum