Дом странных детей Мисс Перегрин / Miss Peregrine\'s Home for Peculiar Children (Тим Бёртон / Tim Burton) [2016, США, Великобритания, Бельгия, фэнтези, драма, приключения, семейный, BDRip-AVC] Dub (BD CEE) + Sub Rus

Reply to topic
 
Author
Message

Satyr ®

Gender: Unknown

Longevity: 11 years

Posts: 15401

Reputation: 55 [+] [-]

Satyr · Post 07-Dec-2016 23:25

[Quote] 

Дом странных детей Мисс Перегрин / Miss Peregrine's Home for Peculiar Children
Страна: США, Великобритания, Бельгия
Жанр: фэнтези, драма, приключения, семейный
Год выпуска: 2016
Продолжительность: 02:06:55
Перевод: Профессиональный (дублированный) BD CEE
Cубтитры: русские (форс. (дополнены)), русские
Навигация по главам: есть
Режиссер: Тим Бёртон / Tim Burton
В ролях: Ева Грин (Miss Peregrine), Эйса Баттерфилд (Jake), Сэмюэл Л. Джексон (Barron), Джуди Денч (Miss Avocet), Руперт Эверетт (Ornithologist), Эллисон Дженни (Dr. Golan), Крис О’Дауд (Franklin Portman), Теренс Стэмп (Abraham «Abe» Portman), Элла Пернелл (Emma Bloom), Финлэй МакМиллан (Enoch O'Conner), Лорен МакКрости (Olive Abroholos Elephanta), Хейден Килер-Стоун (Horace Somnusson)
Описание: Детство Джейкоба прошло под рассказы дедушки о приюте для необычных детей. Среди его обитателей девочка, которая умела держать в руках огонь, девочка, чьи ноги не касались земли, невидимый мальчик и близнецы, умевшие общаться без слов. Когда дедушка умирает, 16-летний Джейкоб получает загадочное письмо и отправляется на остров, где вырос его дед. Там он находит детей, которых раньше видел только на фотографиях.
Автор рипа - potroks
Сэмпл
Качество видео: BDRip-AVC / Исх. Miss Peregrine's Home for Peculiar Children (2016) Blu-ray EUR 1080p AVC DTS 5.1-HDClub
Формат видео: MKV
Видео: AVC, 960x520 (16:9), 1455 kbps, 23,976 fps, 0,122 bpp
Аудио: AC3 / 2.0 / 48 kHz / 192 kbps / 16 bit - rus-

MediaInfo

ОбщееУникальный идентификатор                 : 236429190235278323594655591876524005936 (0xB1DE9B107989D542B174572C2DC05A30)Полное имя                               : D:\Dom.Strannyh.Detey.Miss.Peregrin.2016.RUS.BDRip.x264.-HELLYWOOD.mkvФормат                                   : MatroskaВерсия формата                           : Version 4 / Version 2Размер файла                             : 1,46 ГбайтПродолжительность                        : 2 ч. 6 м.Общий поток                              : 1649 Кбит/секНазвание фильма                          : Miss Peregrine's Home for Peculiar Children (2016)Дата кодирования                         : UTC 2016-12-07 15:58:00Программа кодирования                    : mkvmerge v5.9.0 ('On The Loose') built on Dec 15 2012 16:39:58Библиотека кодирования                   : libebml v1.3.0 + libmatroska v1.4.0
ВидеоИдентификатор : 1Формат : AVCФормат/Информация : Advanced Video CodecПрофиль формата : High@L4.1Параметр CABAC формата : ДаПараметр ReFrames формата : 12 кадровИдентификатор кодека : V_MPEG4/ISO/AVCПродолжительность : 2 ч. 6 м.Битрейт : 1455 Кбит/секШирина : 960 пикселейВысота : 520 пикселейСоотношение сторон : 1,85:1Режим частоты кадров : ПостоянныйЧастота кадров : 23,976 кадра/секЦветовое пространство : YUVСубдискретизация насыщенности : 4:2:0Битовая глубина : 8 битТип развёртки : ПрогрессивнаяБит/(Пиксели*Кадры) : 0.122Размер потока : 1,26 Гбайт (86%)Заголовок : potroksБиблиотека кодирования : x264 core 146 r2538 121396cНастройки программы : cabac=1 / ref=12 / deblock=1:-2:-2 / analyse=0x3:0x113 / me=umh / subme=11 / psy=1 / psy_rd=1.05:0.05 / mixed_ref=1 / me_range=48 / chroma_me=1 / trellis=2 / 8x8dct=1 / cqm=0 / deadzone=21,11 / fast_pskip=0 / chroma_qp_offset=-3 / threads=9 / lookahead_threads=2 / sliced_threads=0 / nr=0 / decimate=0 / interlaced=0 / bluray_compat=0 / constrained_intra=0 / bframes=13 / b_pyramid=2 / b_adapt=2 / b_bias=0 / direct=3 / weightb=1 / open_gop=0 / weightp=2 / keyint=240 / keyint_min=23 / scenecut=40 / intra_refresh=0 / rc_lookahead=60 / rc=2pass / mbtree=0 / bitrate=1455 / ratetol=1.0 / qcomp=0.70 / qpmin=0 / qpmax=69 / qpstep=4 / cplxblur=20.0 / qblur=0.5 / vbv_maxrate=14000 / vbv_bufsize=14000 / nal_hrd=none / filler=0 / ip_ratio=1.40 / pb_ratio=1.30 / aq=1:0.80Язык : EnglishDefault : ДаForced : Нет
АудиоИдентификатор : 2Формат : AC-3Формат/Информация : Audio Coding 3Расширение режима : CM (complete main)Параметр Endianness формата : BigИдентификатор кодека : A_AC3Продолжительность : 2 ч. 6 м.Вид битрейта : ПостоянныйБитрейт : 192 Кбит/секКаналы : 2 каналаРасположение каналов : Front: L RЧастота : 48,0 КГцЧастота кадров : 31,250 кадров/сек (1536 spf)Метод сжатия : С потерямиРазмер потока : 174 Мбайт (12%)Заголовок : Dub | DD 2.0 @ 192 kbps - Blu-ray CEEЯзык : RussianDefault : ДаForced : Нет
Текст #1Идентификатор : 3Формат : UTF-8Идентификатор кодека : S_TEXT/UTF8Идентификатор кодека/Информация : UTF-8 Plain TextЗаголовок : Forced [potroks]Язык : RussianDefault : ДаForced : Нет
Текст #2Идентификатор : 4Формат : UTF-8Идентификатор кодека : S_TEXT/UTF8Идентификатор кодека/Информация : UTF-8 Plain TextЗаголовок : Blu-ray CEEЯзык : RussianDefault : НетForced : Нет
Меню00:00:00.000 : en:(01)00:00:00:00000:03:40.803 : en:(02)00:03:40:80300:08:38.017 : en:(03)00:08:38:01700:13:06.827 : en:(04)00:13:06:82700:15:26.550 : en:(05)00:15:26:55000:19:47.477 : en:(06)00:19:47:47700:23:23.652 : en:(07)00:23:23:65200:27:47.040 : en:(08)00:27:47:04000:31:06.447 : en:(09)00:31:06:44700:34:36.783 : en:(10)00:34:36:78300:39:34.997 : en:(11)00:39:34:99700:42:42.810 : en:(12)00:42:42:81000:46:05.637 : en:(13)00:46:05:63700:48:36.496 : en:(14)00:48:36:49600:54:16.461 : en:(15)00:54:16:46100:57:21.479 : en:(16)00:57:21:47901:02:03.261 : en:(17)01:02:03:26101:08:20.846 : en:(18)01:08:20:84601:14:29.006 : en:(19)01:14:29:00601:18:54.062 : en:(20)01:18:54:06201:24:15.300 : en:(21)01:24:15:30001:28:42.442 : en:(22)01:28:42:44201:33:11.752 : en:(23)01:33:11:75201:36:29.033 : en:(24)01:36:29:03301:40:43.787 : en:(25)01:40:43:78701:46:09.237 : en:(26)01:46:09:23701:53:35.308 : en:(27)01:53:35:30802:00:34.393 : en:(28)02:00:34:39302:06:55.399 : en:(29)02:06:55:399

Скриншоты

-
[Profile]  [PM] 
Display posts:    
Reply to topic

Current time is: 20-Sep 19:08

All times are UTC + 2



You cannot post new topics in this forum
You cannot reply to topics in this forum
You cannot edit your posts in this forum
You cannot delete your posts in this forum
You cannot vote in polls in this forum
You cannot attach files in this forum
You cannot download files in this forum