Дом странных детей Мисс Перегрин / Miss Peregrine\'s Home for Peculiar Children (Тим Бёртон / Tim Burton) [2016, США, Великобритания, Бельгия, фэнтези, драма, приключения, семейный, BDRip] Dub (EUR) + Original Eng + subs (Rus, Eng, Ukr)

Reply to topic
 
Author
Message

Satyr ®

Gender: Unknown

Longevity: 11 years

Posts: 15401

Reputation: 55 [+] [-]

Satyr · Post 12-Dec-2016 17:50

[Quote] 

Дом странных детей Мисс Перегрин / Miss Peregrine's Home for Peculiar Children- Год выпуска: 2016
Выпущено: США, Великобритания, Бельгия
Жанр: фэнтези, драма, приключения, семейный
Продолжительность: 02:06:55
Перевод: Профессиональный (полное дублирование) EUR
+ Оригинальная звуковая дорожка (отдельно)
Субтитры: Русские, английские (обычные, SDH, SDH-Colored), украинские (внешние srt*) (спасибо Elheym)-Режиссер: Тим Бёртон / Tim Burton
В ролях: Ева Грин, Эйса Баттерфилд, Сэмюэл Л. Джексон, Джуди Денч, Руперт Эверетт, Эллисон Дженни, Крис О’Дауд, Теренс Стэмп, Элла Пернелл, Финлэй МакМиллан
О фильме: Детство Джейкоба прошло под рассказы дедушки о приюте для необычных детей. Среди его обитателей девочка, которая умела держать в руках огонь, девочка, чьи ноги не касались земли, невидимый мальчик и близнецы, умевшие общаться без слов. Когда дедушка умирает, 16-летний Джейкоб получает загадочное письмо и отправляется на остров, где вырос его дед. Там он находит детей, которых раньше видел только на фотографиях.
Релиз:
Автор: yaroslaigor
Качество: BDRip (источник: / Blu-Ray EUR / 1080р)
Формат: AVI
Видео: 704x384 (1.83:1), 23.976 fps, XviD build 65 ~2007 kbps avg, 0.31 bit/pixel
Аудио #1: 48 kHz, AC3 Dolby Digital, 3/2 (L,C,R,l,r) + LFE ch, ~448.00 kbps avg rus
Аудио #2: 48 kHz, AC3 Dolby Digital, 3/2 (L,C,R,l,r) + LFE ch, ~448.00 kbps avg (отдельно) eng
Размер: 2235.22 Mb (1/2 DVD)
Скачать: Семпл-

Кадры из фильма


-

Mi

Формат : AVI
Формат/Информация : Audio Video Interleave
Профиль формата : OpenDML
Размер файла : 2,18 Гбайт
Продолжительность : 2 ч. 6 м.
Общий поток : 2462 Кбит/сек
Название фильма : Дом странных детей Мисс Перегрин / Miss Peregrine's Home for Peculiar Children (2016) BDRip
Режиссёр : yaroslaigor
Жанр : фэнтези, драма, приключения
Программа кодирования : VirtualDubMod 1.5.10.2 (build 2542/release)
Правообладатель : HQCLUB
Примечание : 08.12.2016
Видео
Идентификатор : 0
Формат : MPEG-4 Visual
Профиль формата : Advanced Simple@L5
Параметр BVOP формата : 1
Параметр QPel формата : Нет
Параметр GMC формата : Без точки перехода
Параметр матрицы формата : Выборочная
Идентификатор кодека : XVID
Идентификатор кодека/Подсказка : XviD
Продолжительность : 2 ч. 6 м.
Битрейт : 2002 Кбит/сек
Ширина : 704 пикселя
Высота : 384 пикселя
Соотношение сторон : 1,85:1
Частота кадров : 23,976 кадра/сек
Цветовое пространство : YUV
Субдискретизация насыщенности : 4:2:0
Битовая глубина : 8 бит
Тип развёртки : Прогрессивная
Метод сжатия : С потерями
Бит/(Пиксели*Кадры) : 0.309
Размер потока : 1,77 Гбайт (81%)
Библиотека кодирования : XviD 65
Аудио
Идентификатор : 1
Формат : AC-3
Формат/Информация : Audio Coding 3
Расширение режима : CM (complete main)
Параметр Endianness формата : Big
Идентификатор кодека : 2000
Продолжительность : 2 ч. 6 м.
Вид битрейта : Постоянный
Битрейт : 448 Кбит/сек
Каналы : 6 каналов
Расположение каналов : Front: L C R, Side: L R, LFE
Частота : 48,0 КГц
Битовая глубина : 16 бит
Метод сжатия : С потерями
Размер потока : 407 Мбайт (18%)
Выравнивание : Разделение по промежуткам
Продолжительность промежутка : 42 мс. (1,00 видеокадр)
Время предзагрузки промежутка : 500 мс.
-
[Profile]  [PM] 
Display posts:    
Reply to topic

Current time is: 22-Sep 16:41

All times are UTC + 2



You cannot post new topics in this forum
You cannot reply to topics in this forum
You cannot edit your posts in this forum
You cannot delete your posts in this forum
You cannot vote in polls in this forum
You cannot attach files in this forum
You cannot download files in this forum