Dimmu Borgir - World Misanthropy [2002, Sympho Black Metal, DVDRip]

Reply to topic
 
Author
Message

Rogvald ®

Gender: Male

Longevity: 11 years

Posts: 836

Reputation: 1006 [+] [-]

Rogvald · Post 10-May-2013 01:25

[Quote] 

Dimmu Borgir - World Misanthropy
Страна: Норвегия / Norway
Жанр: Sympho Black Metal
Продолжительность: 01:36:53
Год выпуска: 2002-Описание:
Концерты:
1. LKA Stuttgart (Germany 04.04.2001).
2. Live At Wacken Open Air (03.08.2001).-Треклист:
1. Blessings Upon the Throne of Tyranny (Live At Wacken Open Air (03.08.2001)).
2. The Blazing Monoliths of Defiance (LKA Stuttgart (Germany 04.04.2001)).
3. IndoctriNation (Live At Wacken Open Air (03.08.2001)).
4. The Insight And The Catharsis (LKA Stuttgart (Germany 04.04.2001)).
5. Puritania (Live At Wacken Open Air (03.08.2001)).
6. Tormentor Of Christian Souls (LKA Stuttgart (Germany 04.04.2001)).
7. Kings of the Carnival Creation (Live At Wacken Open Air (03.08.2001)).
8. The Maelstrom Mephisto (LKA Stuttgart (Germany 04.04.2001)).-Доп. информация: Данный DVDRip сделан мной из этой DVD9 раздачи. Использовалась программа Gordian Knot.
Помимо основной части, добавлены в начало - вступление и в конце - титры. Обрезаны лишние чёрные полосы по всему периметру. Звук перекодирован в CBR 192 kbps Stereo (т.к. не вижу смысла оставлять ac3 384 kbps Stereo). Убрана гребёнка, присутствовавшая в оригинале.-Качество: DVDRip
Контейнер: AVI
Видео кодек: XviD
Аудио кодек: MP3
Видео: 720x528 (1.36:1), 25 fps, XviD MPEG-4 (~1947 kbps avg), 0.20 bit/pixel
Аудио: 48 kHz, MPEG Layer 3, 2 ch, CBR 192 kbps-DVD5 (4.35 ГБ) Image188 здесь
DVD9 (5.96 ГБ) Image188 здесь
Image188 Сэмпл Image166

MediaInfo

General
Complete name                    : E:\Мои раздачи\Dimmu Borgir - World Misanthropy.avi
Format                           : AVI
Format/Info                      : Audio Video Interleave
File size                        : 1.45 GiB
Duration                         : 1h 36mn
Overall bit rate                 : 2 150 Kbps
Writing application              : VirtualDubMod 1.5.10.2 (build 2540/release)
Writing library                  : VirtualDubMod build 2540/release
Video
ID                               : 0
Format                           : MPEG-4 Visual
Format profile                   : Advanced Simple@L5
Format settings, BVOP            : Yes
Format settings, QPel            : No
Format settings, GMC             : No warppoints
Format settings, Matrix          : Default (H.263)
Muxing mode                      : Packed bitstream
Codec ID                         : DX50
Codec ID/Hint                    : DivX 5
Duration                         : 1h 36mn
Bit rate                         : 1 948 Kbps
Width                            : 720 pixels
Height                           : 528 pixels
Display aspect ratio             : 4:3
Frame rate                       : 25.000 fps
Color space                      : YUV
Chroma subsampling               : 4:2:0
Bit depth                        : 8 bits
Scan type                        : Progressive
Bits/(Pixel*Frame)               : 0.205
Stream size                      : 1.32 GiB (91%)
Writing library                  : XviD 1.2.1 (UTC 2008-12-04)
Audio
ID                               : 1
Format                           : MPEG Audio
Format version                   : Version 1
Format profile                   : Layer 3
Mode                             : Joint stereo
Mode extension                   : MS Stereo
Codec ID                         : 55
Codec ID/Hint                    : MP3
Duration                         : 1h 36mn
Bit rate mode                    : Constant
Bit rate                         : 192 Kbps
Channel(s)                       : 2 channels
Sampling rate                    : 48.0 KHz
Stream size                      : 133 MiB (9%)
Alignment                        : Aligned on interleaves
Interleave, duration             : 40 ms (1.00 video frame)
Interleave, preload duration     : 504 ms

Скриншоты

[Profile]  [PM] 
Display posts:    
Reply to topic

Current time is: 19-Sep 11:17

All times are UTC + 2



You cannot post new topics in this forum
You cannot reply to topics in this forum
You cannot edit your posts in this forum
You cannot delete your posts in this forum
You cannot vote in polls in this forum
You cannot attach files in this forum
You cannot download files in this forum