The Big 4 - Live From Sonisphere Sofia Bulgaria [2010, Thrash Metal, Blu-ray]

Reply to topic
 
Author
Message

Rogvald ®

Gender: Male

Longevity: 11 years

Posts: 836

Reputation: 1006 [+] [-]

Rogvald · Post 16-Feb-2014 04:11

[Quote] 

The Big 4 - Live From Sonisphere Sofia Bulgaria
Жанр: Thrash Metal
Продолжительность: 03:07:06+02:12:02
Год выпуска: 2010
Описание: Большая четверка thrash metal (The Big Four) - группы Metallica, Slayer, Megadeth и Anthrax выступили на совместном концерте в столице Болгарии 22 июня 2010. Концерт в прямом эфире транслировался в 800 кинотеатрах по всему миру.
Релиз от Релиз группа
Отдельная благодарность Cisco за предоставленный материал.
Качество: Blu-ray
Контейнер: BDMV
Disk 1
Видео: MPEG-4 AVC Video / 23961 kbps / 1080i / 29,970 fps (High Profile 4.1)
Аудио: English / DTS-HD Master Audio / 5.1 / 48 kHz / 5646 kbps / 24-bit (DTS Core: 5.1 / 48 kHz / 1509 kbps / 24-bit)
Аудио 2:English / LPCM Audio / 2.0 / 48 kHz / 2304 kbps / 24-bit

Disk 2
Видео:MPEG-4 AVC Video / 26785 kbps / 1080i / 29,970 fps (High Profile 4.1)
Аудио: English / DTS-HD Master Audio / 5.1 / 48 kHz / 5463 kbps / 24-bit (DTS Core: 5.1 / 48 kHz / 1509 kbps / 24-bit)
Аудио 2:English / LPCM Audio / 2.0 / 48 kHz / 2304 kbps / 24-bit

Кому не нужно все, файлы по группам:
Disk 1
00002.m2ts 15.01 GB - Anthrax
00003.m2ts 14.46 GB - Megadeth
00004.m2ts 14.39 GB - Slayer
Disk 2
00002.m2ts 33.15 GB - Metallica

Альтернативный постер+накатки(спасибо пользователю camelot) +обложки(спасибо пользователям barrett86 и AlexSchl)

Tracklist

ANTHRAX
01. Caught in a Mosh
02. Got the Time (Joe Jackson cover)
03. Madhouse
04. Be All, End All
05. Antisocial (Trust cover)
06. Indians
07. Medusa
08. Only
09. Metal Thrashing Mad
10. I Am The Law
MEGADETH
01. Holy Wars... the Punishment Due
02. Hangar 18
03. Wake Up Dead
04. Headcrusher
05. In My Darkest Hour
06. Skin O' My Teeth
07. Tout Le Monde
08. Hook In Mouth
09. Trust
10. Sweating Bullets
11. Symphony Of Destruction
12. Peace Sells
SLAYER
01. World Painted Blood
02. Jihad
03. War Ensemble
04. Hate Worldwide
05. Dead Skin Mask
06. Angel of Death
07. Beauty Through Order
08. Disciple
09. Mandatory Suicide
10. Chemical Warfare
11. South of Heaven
12. Raining Blood
METALLICA
01. Creeping Death
02. For Whom The Bell Tolls
03. Fuel
04. Harvester Of Sorrow
05. Fade To Black
06. That Was Just Your Life
07. Cyanide
08. Sad But True
09. Welcome Home (Sanitarium)
10. All Nightmare Long
11. One
12. Master Of Puppets
13. Blackened
14. Nothing Else Matters
15. Enter Sandman
16. Am I Evil?
17. Hit The Lights
18. Seek & Destroy

AnyDVD-HD-Log

Summary for drive G: (AnyDVD 6.7.1.0)
HL-DT-ST BDDVDRW GGC-H20L 1.03 420515085389985929
Drive (Hardware) Region: 0 (not set!)
Media is a Blu-Ray disc.
Total size: 23579552 sectors (46053 MBytes)
Video Blu-ray label: THE_BIG_4_LIVE_DISC_1
Media is AACS protected!
AACS MKB version 19
Removed AACS copy protection!
Blu-ray disc is region free!
Removed UOPs!
Removed annoying trailers!
AnyDVD-HD-Log Disc 2
Summary for drive G: (AnyDVD 6.7.1.0)
HL-DT-ST BDDVDRW GGC-H20L 1.03 420515085389985929
Drive (Hardware) Region: 0 (not set!)
Media is a Blu-Ray disc.
Total size: 22626016 sectors (44191 MBytes)
Video Blu-ray label: THE_BIG_4_LIVE_DISC_2
Media is AACS protected!
AACS MKB version 19
Removed AACS copy protection!
Blu-ray disc is region free!
Removed UOPs!
Removed annoying trailers!

Скриншоты меню

BDinfo№1

Disc Title: THE_BIG_4_LIVE_DISC_1
Disc Size: 48 276 147 448 bytes
Protection: AACS
BD-Java: No
Notes:
BDINFO HOME AND REPORTS SUBMISSION:
Cinema Squid
http://www.cinemasquid.com/Tools.aspx
INCLUDES FORUMS REPORT FOR:
Unofficial Blu-ray Audio and Video Specifications Thread
http://www.avsforum.com/avs-vb/showthread.php?t=760714
http://forum.blu-ray.com/showthread.php?t=3338
********************
PLAYLIST: 00006.MPLS
********************
<--- BEGIN SUMMARY PASTE --->
Total   Video
Title                                                           Codec   Length  Movie Size      Disc Size       Bitrate Bitrate Main Audio Track                          Secondary Audio Track
-----                                                           ------  ------- --------------  --------------  ------- ------- ------------------                        ---------------------
00006.MPLS                                                      AVC     3:07:06 47 249 190 912  48 276 147 448  33,67   23,96   DTS-HD Master 5.1 5646Kbps (48kHz/24-bit) LPCM 2.0 2304Kbps (48kHz/24-bit)
<---- END SUMMARY PASTE ---->
<--- BEGIN DETAILS PASTE --->
DISC INFO:
Disc Title:     THE_BIG_4_LIVE_DISC_1
Disc Size:      48 276 147 448 bytes
Protection:     AACS
BD-Java:        No
PLAYLIST REPORT:
Name:                   00006.MPLS
Size:                   47 249 190 912 bytes
Length:                 3:07:06 (h:m:s)
Total Bitrate:          33,67 Mbps
Description:
VIDEO:
Codec                   Bitrate             Description
-----                   -------             -----------
MPEG-4 AVC Video        23961 kbps          1080i / 29,970 fps / 16:9 / High Profile 4.1
AUDIO:
Codec                           Language        Bitrate         Description
-----                           --------        -------         -----------
DTS-HD Master Audio             English         5646 kbps       5.1 / 48 kHz / 5646 kbps / 24-bit (DTS Core: 5.1 / 48 kHz / 1536 kbps / 24-bit)
LPCM Audio                      English         2304 kbps       2.0 / 48 kHz / 2304 kbps / 24-bit
FILES:
Name            Time In         Length          Size            Total Bitrate
----            -------         ------          ----            -------------
00007.M2TS      0:00:00.000     0:00:30.163     87 386 112      23 177
00006.M2TS      0:00:30.163     0:00:10.009     29 165 568      23 309
00002.M2TS      0:00:40.173     1:03:42.051     16 118 691 840  33 738
00008.M2TS      1:04:22.225     0:00:10.009     26 548 224      21 217
00003.M2TS      1:04:32.235     1:01:17.640     15 528 130 560  33 778
00004.M2TS      2:05:49.875     1:01:17.040     15 459 268 608  33 634
CHAPTERS:
Number          Time In         Length          Avg Video Rate  Max 1-Sec Rate  Max 1-Sec Time  Max 5-Sec Rate  Max 5-Sec Time  Max 10Sec Rate  Max 10Sec Time  Avg Frame Size  Max Frame Size  Max Frame Time
------          -------         ------          --------------  --------------  --------------  --------------  --------------  --------------  --------------  --------------  --------------  --------------
1               0:00:00.000     0:00:30.130     14 926 kbps     29 453 kbps     00:00:15.815    20 153 kbps     00:00:24.090    19 130 kbps     00:00:09.209    62 187 bytes    201 815 bytes   00:00:09.609
2               0:00:30.130     0:00:51.951     18 719 kbps     35 440 kbps     00:01:15.141    31 276 kbps     00:01:11.905    27 556 kbps     00:00:52.285    78 073 bytes    446 768 bytes   00:00:41.174
3               0:01:22.081     0:05:52.251     23 584 kbps     42 499 kbps     00:02:13.066    37 551 kbps     00:05:17.450    34 078 kbps     00:05:12.445    98 366 bytes    476 009 bytes   00:07:00.219
4               0:07:14.333     0:03:35.815     22 376 kbps     41 821 kbps     00:09:26.866    38 731 kbps     00:09:26.866    33 656 kbps     00:09:26.499    93 325 bytes    468 477 bytes   00:09:27.733
5               0:10:50.149     0:04:22.895     22 303 kbps     38 341 kbps     00:14:33.906    33 634 kbps     00:10:57.223    33 109 kbps     00:13:55.701    93 024 bytes    458 352 bytes   00:10:59.759
6               0:15:13.045     0:07:59.412     24 889 kbps     42 590 kbps     00:19:33.205    38 381 kbps     00:19:29.535    34 950 kbps     00:19:28.734    103 809 bytes   480 177 bytes   00:19:34.039
7               0:23:12.457     0:06:34.994     25 151 kbps     42 145 kbps     00:24:31.703    35 638 kbps     00:29:25.763    32 435 kbps     00:29:25.764    104 902 bytes   480 809 bytes   00:25:40.538
8               0:29:47.452     0:10:03.069     25 115 kbps     44 034 kbps     00:39:43.381    38 513 kbps     00:39:39.810    32 953 kbps     00:30:07.172    104 749 bytes   481 509 bytes   00:39:44.348
9               0:39:50.521     0:06:11.871     22 224 kbps     42 269 kbps     00:45:53.083    37 518 kbps     00:45:50.614    33 779 kbps     00:41:00.558    92 693 bytes    479 549 bytes   00:45:54.885
10              0:46:02.392     0:06:36.195     23 992 kbps     41 376 kbps     00:49:02.706    37 979 kbps     00:52:06.323    33 137 kbps     00:51:06.530    100 066 bytes   481 595 bytes   00:51:40.997
11              0:52:38.588     0:02:55.542     24 463 kbps     41 793 kbps     00:54:37.540    37 763 kbps     00:54:37.374    32 896 kbps     00:54:35.739    102 032 bytes   474 335 bytes   00:54:37.574
12              0:55:34.130     0:08:48.060     24 299 kbps     42 452 kbps     01:03:43.886    36 735 kbps     01:01:30.553    33 795 kbps     01:03:43.219    101 347 bytes   481 204 bytes   01:03:29.605
13              1:04:22.191     0:00:59.392     19 139 kbps     35 667 kbps     01:05:05.901    29 837 kbps     01:05:01.931    28 101 kbps     01:04:56.926    79 828 bytes    385 074 bytes   01:05:19.482
14              1:05:21.584     0:06:20.213     24 602 kbps     42 131 kbps     01:09:10.412    34 152 kbps     01:10:07.836    32 162 kbps     01:05:37.867    102 611 bytes   633 293 bytes   01:06:02.958
15              1:11:41.797     0:05:03.836     23 022 kbps     41 980 kbps     01:14:55.524    34 038 kbps     01:11:48.203    32 615 kbps     01:11:47.403    96 022 bytes    737 437 bytes   01:16:40.963
16              1:16:45.634     0:03:39.185     23 827 kbps     41 295 kbps     01:16:46.368    37 356 kbps     01:16:45.634    33 428 kbps     01:18:57.999    99 380 bytes    718 704 bytes   01:18:13.722
17              1:20:24.819     0:03:32.078     25 376 kbps     41 802 kbps     01:20:39.201    34 249 kbps     01:23:51.893    30 930 kbps     01:23:46.821    105 840 bytes   631 858 bytes   01:23:55.463
18              1:23:56.898     0:05:19.419     23 382 kbps     43 740 kbps     01:28:07.448    37 428 kbps     01:28:04.078    32 103 kbps     01:28:00.208    97 523 bytes    671 164 bytes   01:28:08.282
19              1:29:16.317     0:03:11.024     23 428 kbps     38 781 kbps     01:31:34.455    31 808 kbps     01:31:07.829    30 697 kbps     01:30:47.074    97 712 bytes    603 066 bytes   01:30:34.762
20              1:32:27.341     0:04:30.036     24 385 kbps     42 456 kbps     01:33:50.958    38 767 kbps     01:33:50.157    34 642 kbps     01:33:50.124    101 707 bytes   739 541 bytes   01:36:38.359
21              1:36:57.378     0:04:37.677     23 517 kbps     41 739 kbps     01:41:31.919    34 914 kbps     01:40:55.449    33 543 kbps     01:40:53.847    98 085 bytes    555 506 bytes   01:39:30.964
22              1:41:35.055     0:05:06.172     24 156 kbps     42 793 kbps     01:43:19.092    37 413 kbps     01:43:19.026    32 520 kbps     01:45:03.130    100 751 bytes   769 827 bytes   01:42:38.151
23              1:46:41.228     0:04:50.523     23 787 kbps     46 684 kbps     01:47:05.418    37 794 kbps     01:49:44.044    33 237 kbps     01:46:46.466    99 211 bytes    745 465 bytes   01:49:45.745
24              1:51:31.751     0:04:12.719     24 428 kbps     42 955 kbps     01:51:58.878    36 828 kbps     01:55:22.915    32 864 kbps     01:54:26.726    101 884 bytes   779 732 bytes   01:51:42.128
25              1:55:44.470     0:10:05.371     24 409 kbps     43 495 kbps     02:04:57.456    35 864 kbps     02:04:54.587    33 382 kbps     02:05:37.997    101 804 bytes   698 460 bytes   01:55:52.445
26              2:05:49.842     0:06:19.145     23 583 kbps     50 977 kbps     02:07:16.562    37 259 kbps     02:11:57.009    32 202 kbps     02:06:27.179    98 359 bytes    765 508 bytes   02:10:26.285
27              2:12:08.987     0:04:18.324     24 845 kbps     42 001 kbps     02:13:18.090    33 320 kbps     02:13:14.486    30 337 kbps     02:13:37.075    103 622 bytes   698 794 bytes   02:12:53.832
28              2:16:27.312     0:05:23.589     25 263 kbps     42 303 kbps     02:18:48.353    33 586 kbps     02:20:04.729    32 605 kbps     02:20:33.324    105 369 bytes   563 172 bytes   02:18:48.386
29              2:21:50.902     0:03:09.756     23 909 kbps     40 014 kbps     02:22:44.555    33 464 kbps     02:23:06.511    31 458 kbps     02:22:37.515    99 719 bytes    644 290 bytes   02:24:03.201
30              2:25:00.658     0:06:28.121     23 813 kbps     42 474 kbps     02:27:39.350    37 298 kbps     02:26:30.381    31 634 kbps     02:26:24.809    99 321 bytes    765 120 bytes   02:28:23.561
31              2:31:28.779     0:05:34.467     25 962 kbps     44 034 kbps     02:33:43.847    37 247 kbps     02:36:40.557    35 758 kbps     02:36:40.557    108 282 bytes   486 772 bytes   02:34:47.044
32              2:37:03.247     0:05:07.874     23 519 kbps     41 452 kbps     02:41:31.648    33 104 kbps     02:41:28.678    30 748 kbps     02:39:46.743    98 094 bytes    581 428 bytes   02:41:50.600
33              2:42:11.121     0:05:13.012     22 886 kbps     41 675 kbps     02:46:27.877    37 305 kbps     02:46:25.909    32 952 kbps     02:46:21.504    95 455 bytes    615 488 bytes   02:46:12.562
34              2:47:24.134     0:04:14.020     23 088 kbps     43 491 kbps     02:49:48.978    35 452 kbps     02:50:24.080    30 868 kbps     02:50:20.476    96 295 bytes    712 787 bytes   02:50:26.583
35              2:51:38.154     0:05:50.750     24 093 kbps     43 183 kbps     02:55:32.688    35 836 kbps     02:55:32.588    30 069 kbps     02:55:05.428    100 488 bytes   583 207 bytes   02:54:00.363
36              2:57:28.904     0:04:18.825     23 811 kbps     41 449 kbps     03:00:19.875    35 493 kbps     03:00:01.190    31 905 kbps     03:01:31.447    99 312 bytes    738 942 bytes   02:57:50.426
37              3:01:47.730     0:05:19.185     23 159 kbps     45 384 kbps     03:05:01.490    38 069 kbps     03:05:01.490    32 623 kbps     03:04:59.288    96 604 bytes    754 445 bytes   03:05:02.357
STREAM DIAGNOSTICS:
File            PID             Type            Codec           Language                Seconds                 Bitrate                 Bytes           Packets
----            ---             ----            -----           --------                --------------          --------------          -------------   -----
00007.M2TS      4113 (0x1011)   0x1B            AVC                                     30,163                  14 910                  56 216 750      306 050
00007.M2TS      4352 (0x1100)   0x80            LPCM            eng (English)           30,163                  2 311                   8 711 652       48 264
00007.M2TS      4353 (0x1101)   0x86            DTS-HD MA       eng (English)           30,163                  4 635                   17 474 392      99 768
00006.M2TS      4113 (0x1011)   0x1B            AVC                                     10,010                  14 736                  18 437 927      100 375
00006.M2TS      4352 (0x1100)   0x80            LPCM            eng (English)           10,010                  2 295                   2 872 116       15 912
00006.M2TS      4353 (0x1101)   0x86            DTS-HD MA       eng (English)           10,010                  4 953                   6 196 876       35 257
00002.M2TS      4113 (0x1011)   0x1B            AVC                                     3822,052                24 001                  11 466 672 334  62 386 349
00002.M2TS      4352 (0x1100)   0x80            LPCM            eng (English)           3822,052                2 309                   1 103 100 480   6 111 360
00002.M2TS      4353 (0x1101)   0x86            DTS-HD MA       eng (English)           3822,052                5 673                   2 710 483 000   15 325 772
00008.M2TS      4113 (0x1011)   0x1B            AVC                                     10,010                  14 708                  18 403 506      100 187
00008.M2TS      4352 (0x1100)   0x80            LPCM            eng (English)           10,010                  2 295                   2 872 116       15 912
00008.M2TS      4353 (0x1101)   0x86            DTS-HD MA       eng (English)           10,010                  2 976                   3 723 336       21 809
00003.M2TS      4113 (0x1011)   0x1B            AVC                                     3677,641                23 999                  11 032 255 387  60 022 786
00003.M2TS      4352 (0x1100)   0x80            LPCM            eng (English)           3677,641                2 309                   1 061 686 560   5 881 920
00003.M2TS      4353 (0x1101)   0x86            DTS-HD MA       eng (English)           3677,641                5 714                   2 626 634 088   14 847 776
00004.M2TS      4113 (0x1011)   0x1B            AVC                                     3677,040                24 006                  11 033 969 801  60 032 189
00004.M2TS      4352 (0x1100)   0x80            LPCM            eng (English)           3677,040                2 309                   1 061 455 520   5 880 640
00004.M2TS      4353 (0x1101)   0x86            DTS-HD MA       eng (English)           3677,040                5 567                   2 558 835 900   14 481 004
<---- END DETAILS PASTE ---->
********************
PLAYLIST: 00005.MPLS
********************
<--- BEGIN SUMMARY PASTE --->
Total   Video
Title                                                           Codec   Length  Movie Size      Disc Size       Bitrate Bitrate Main Audio Track                          Secondary Audio Track
-----                                                           ------  ------- --------------  --------------  ------- ------- ------------------                        ---------------------
00005.MPLS                                                      AVC     1:03:52 16 147 857 408  48 276 147 448  33,71   23,98   DTS-HD Master 5.1 5671Kbps (48kHz/24-bit) LPCM 2.0 2304Kbps (48kHz/24-bit)
<---- END SUMMARY PASTE ---->
<--- BEGIN DETAILS PASTE --->
DISC INFO:
Disc Title:     THE_BIG_4_LIVE_DISC_1
Disc Size:      48 276 147 448 bytes
Protection:     AACS
BD-Java:        No
PLAYLIST REPORT:
Name:                   00005.MPLS
Size:                   16 147 857 408 bytes
Length:                 1:03:52 (h:m:s)
Total Bitrate:          33,71 Mbps
Description:
VIDEO:
Codec                   Bitrate             Description
-----                   -------             -----------
MPEG-4 AVC Video        23977 kbps          1080i / 29,970 fps / 16:9 / High Profile 4.1
AUDIO:
Codec                           Language        Bitrate         Description
-----                           --------        -------         -----------
DTS-HD Master Audio             English         5671 kbps       5.1 / 48 kHz / 5671 kbps / 24-bit (DTS Core: 5.1 / 48 kHz / 1536 kbps / 24-bit)
LPCM Audio                      English         2304 kbps       2.0 / 48 kHz / 2304 kbps / 24-bit
FILES:
Name            Time In         Length          Size            Total Bitrate
----            -------         ------          ----            -------------
00006.M2TS      0:00:00.000     0:00:10.009     29 165 568      23 309
00002.M2TS      0:00:10.009     1:03:42.051     16 118 691 840  33 738
CHAPTERS:
Number          Time In         Length          Avg Video Rate  Max 1-Sec Rate  Max 1-Sec Time  Max 5-Sec Rate  Max 5-Sec Time  Max 10Sec Rate  Max 10Sec Time  Avg Frame Size  Max Frame Size  Max Frame Time
------          -------         ------          --------------  --------------  --------------  --------------  --------------  --------------  --------------  --------------  --------------  --------------
1               0:00:00.000     0:00:51.918     18 731 kbps     35 440 kbps     00:00:44.978    31 276 kbps     00:00:41.741    27 556 kbps     00:00:22.122    78 073 bytes    446 768 bytes   00:00:11.010
2               0:00:51.918     0:05:52.251     23 584 kbps     42 499 kbps     00:01:42.902    37 551 kbps     00:04:47.287    34 078 kbps     00:04:42.282    98 366 bytes    476 009 bytes   00:06:30.056
3               0:06:44.170     0:03:35.815     22 376 kbps     41 821 kbps     00:08:56.702    38 731 kbps     00:08:56.702    33 656 kbps     00:08:56.335    93 325 bytes    468 477 bytes   00:08:57.570
4               0:10:19.986     0:04:22.895     22 303 kbps     38 341 kbps     00:14:03.742    33 634 kbps     00:10:27.059    33 109 kbps     00:13:25.538    93 024 bytes    458 352 bytes   00:10:29.595
5               0:14:42.882     0:07:59.412     24 889 kbps     42 590 kbps     00:19:03.041    38 381 kbps     00:18:59.371    34 950 kbps     00:18:58.570    103 809 bytes   480 177 bytes   00:19:03.876
6               0:22:42.294     0:06:34.994     25 151 kbps     42 145 kbps     00:24:01.540    35 638 kbps     00:28:55.600    32 435 kbps     00:28:55.600    104 902 bytes   480 809 bytes   00:25:10.375
7               0:29:17.288     0:10:03.069     25 115 kbps     44 034 kbps     00:39:13.217    38 513 kbps     00:39:09.647    32 953 kbps     00:29:37.008    104 749 bytes   481 509 bytes   00:39:14.185
8               0:39:20.358     0:06:11.871     22 224 kbps     42 269 kbps     00:45:22.920    37 518 kbps     00:45:20.451    33 779 kbps     00:40:30.394    92 693 bytes    479 549 bytes   00:45:24.721
9               0:45:32.229     0:06:36.195     23 992 kbps     41 376 kbps     00:48:32.542    37 979 kbps     00:51:36.159    33 137 kbps     00:50:36.366    100 066 bytes   481 595 bytes   00:51:10.834
10              0:52:08.425     0:02:55.542     24 463 kbps     41 793 kbps     00:54:07.377    37 763 kbps     00:54:07.210    32 896 kbps     00:54:05.575    102 032 bytes   474 335 bytes   00:54:07.410
11              0:55:03.967     0:08:48.094     24 297 kbps     42 452 kbps     01:03:13.723    36 735 kbps     01:01:00.390    33 795 kbps     01:03:13.055    101 347 bytes   481 204 bytes   01:02:59.442
STREAM DIAGNOSTICS:
File            PID             Type            Codec           Language                Seconds                 Bitrate                 Bytes           Packets
----            ---             ----            -----           --------                --------------          --------------          -------------   -----
00006.M2TS      4113 (0x1011)   0x1B            AVC                                     10,010                  14 736                  18 437 927      100 375
00006.M2TS      4352 (0x1100)   0x80            LPCM            eng (English)           10,010                  2 295                   2 872 116       15 912
00006.M2TS      4353 (0x1101)   0x86            DTS-HD MA       eng (English)           10,010                  4 953                   6 196 876       35 257
00002.M2TS      4113 (0x1011)   0x1B            AVC                                     3822,052                24 001                  11 466 672 334  62 386 349
00002.M2TS      4352 (0x1100)   0x80            LPCM            eng (English)           3822,052                2 309                   1 103 100 480   6 111 360
00002.M2TS      4353 (0x1101)   0x86            DTS-HD MA       eng (English)           3822,052                5 673                   2 710 483 000   15 325 772
<---- END DETAILS PASTE ---->
********************
PLAYLIST: 00001.MPLS
********************
<--- BEGIN SUMMARY PASTE --->
Total   Video
Title                                                           Codec   Length  Movie Size      Disc Size       Bitrate Bitrate Main Audio Track                          Secondary Audio Track
-----                                                           ------  ------- --------------  --------------  ------- ------- ------------------                        ---------------------
00001.MPLS                                                      AVC     1:01:27 15 554 678 784  48 276 147 448  33,74   23,97   DTS-HD Master 5.1 5706Kbps (48kHz/24-bit) LPCM 2.0 2304Kbps (48kHz/24-bit)
<---- END SUMMARY PASTE ---->
<--- BEGIN DETAILS PASTE --->
DISC INFO:
Disc Title:     THE_BIG_4_LIVE_DISC_1
Disc Size:      48 276 147 448 bytes
Protection:     AACS
BD-Java:        No
PLAYLIST REPORT:
Name:                   00001.MPLS
Size:                   15 554 678 784 bytes
Length:                 1:01:27 (h:m:s)
Total Bitrate:          33,74 Mbps
Description:
VIDEO:
Codec                   Bitrate             Description
-----                   -------             -----------
MPEG-4 AVC Video        23973 kbps          1080i / 29,970 fps / 16:9 / High Profile 4.1
AUDIO:
Codec                           Language        Bitrate         Description
-----                           --------        -------         -----------
DTS-HD Master Audio             English         5706 kbps       5.1 / 48 kHz / 5706 kbps / 24-bit (DTS Core: 5.1 / 48 kHz / 1536 kbps / 24-bit)
LPCM Audio                      English         2304 kbps       2.0 / 48 kHz / 2304 kbps / 24-bit
FILES:
Name            Time In         Length          Size            Total Bitrate
----            -------         ------          ----            -------------
00008.M2TS      0:00:00.000     0:00:10.009     26 548 224      21 217
00003.M2TS      0:00:10.009     1:01:17.640     15 528 130 560  33 778
CHAPTERS:
Number          Time In         Length          Avg Video Rate  Max 1-Sec Rate  Max 1-Sec Time  Max 5-Sec Rate  Max 5-Sec Time  Max 10Sec Rate  Max 10Sec Time  Avg Frame Size  Max Frame Size  Max Frame Time
------          -------         ------          --------------  --------------  --------------  --------------  --------------  --------------  --------------  --------------  --------------  --------------
1               0:00:00.000     0:00:59.359     19 150 kbps     35 667 kbps     00:00:43.676    29 837 kbps     00:00:39.706    28 101 kbps     00:00:34.701    79 828 bytes    385 074 bytes   00:00:57.257
2               0:00:59.359     0:06:20.213     24 602 kbps     42 131 kbps     00:04:48.187    34 152 kbps     00:05:45.611    32 162 kbps     00:01:15.642    102 611 bytes   633 293 bytes   00:01:40.733
3               0:07:19.572     0:05:03.836     23 022 kbps     41 980 kbps     00:10:33.299    34 038 kbps     00:07:25.978    32 615 kbps     00:07:25.178    96 022 bytes    737 437 bytes   00:12:18.738
4               0:12:23.409     0:03:39.185     23 827 kbps     41 295 kbps     00:12:24.143    37 356 kbps     00:12:23.409    33 428 kbps     00:14:35.774    99 380 bytes    718 704 bytes   00:13:51.497
5               0:16:02.594     0:03:32.078     25 376 kbps     41 802 kbps     00:16:16.976    34 249 kbps     00:19:29.668    30 930 kbps     00:19:24.596    105 840 bytes   631 858 bytes   00:19:33.238
6               0:19:34.673     0:05:19.419     23 382 kbps     43 740 kbps     00:23:45.223    37 428 kbps     00:23:41.853    32 103 kbps     00:23:37.983    97 523 bytes    671 164 bytes   00:23:46.057
7               0:24:54.092     0:03:11.024     23 428 kbps     38 781 kbps     00:27:12.230    31 808 kbps     00:26:45.604    30 697 kbps     00:26:24.849    97 712 bytes    603 066 bytes   00:26:12.537
8               0:28:05.116     0:04:30.036     24 385 kbps     42 456 kbps     00:29:28.733    38 767 kbps     00:29:27.932    34 642 kbps     00:29:27.899    101 707 bytes   739 541 bytes   00:32:16.134
9               0:32:35.153     0:04:37.677     23 517 kbps     41 739 kbps     00:37:09.694    34 914 kbps     00:36:33.224    33 543 kbps     00:36:31.622    98 085 bytes    555 506 bytes   00:35:08.739
10              0:37:12.830     0:05:06.172     24 156 kbps     42 793 kbps     00:38:56.867    37 413 kbps     00:38:56.801    32 520 kbps     00:40:40.905    100 751 bytes   769 827 bytes   00:38:15.926
11              0:42:19.003     0:04:50.523     23 787 kbps     46 684 kbps     00:42:43.193    37 794 kbps     00:45:21.819    33 237 kbps     00:42:24.241    99 211 bytes    745 465 bytes   00:45:23.520
12              0:47:09.526     0:04:12.719     24 428 kbps     42 955 kbps     00:47:36.653    36 828 kbps     00:51:00.690    32 864 kbps     00:50:04.501    101 884 bytes   779 732 bytes   00:47:19.903
13              0:51:22.245     0:10:05.404     24 407 kbps     43 495 kbps     01:00:35.231    35 864 kbps     01:00:32.362    33 382 kbps     01:01:15.772    101 804 bytes   698 460 bytes   00:51:30.220
STREAM DIAGNOSTICS:
File            PID             Type            Codec           Language                Seconds                 Bitrate                 Bytes           Packets
----            ---             ----            -----           --------                --------------          --------------          -------------   -----
00008.M2TS      4113 (0x1011)   0x1B            AVC                                     10,010                  14 708                  18 403 506      100 187
00008.M2TS      4352 (0x1100)   0x80            LPCM            eng (English)           10,010                  2 295                   2 872 116       15 912
00008.M2TS      4353 (0x1101)   0x86            DTS-HD MA       eng (English)           10,010                  2 976                   3 723 336       21 809
00003.M2TS      4113 (0x1011)   0x1B            AVC                                     3677,641                23 999                  11 032 255 387  60 022 786
00003.M2TS      4352 (0x1100)   0x80            LPCM            eng (English)           3677,641                2 309                   1 061 686 560   5 881 920
00003.M2TS      4353 (0x1101)   0x86            DTS-HD MA       eng (English)           3677,641                5 714                   2 626 634 088   14 847 776
<---- END DETAILS PASTE ---->
********************
PLAYLIST: 00003.MPLS
********************
<--- BEGIN SUMMARY PASTE --->
Total   Video
Title                                                           Codec   Length  Movie Size      Disc Size       Bitrate Bitrate Main Audio Track                          Secondary Audio Track
-----                                                           ------  ------- --------------  --------------  ------- ------- ------------------                        ---------------------
00003.MPLS                                                      AVC     1:01:17 15 459 268 608  48 276 147 448  33,63   24,01   DTS-HD Master 5.1 5567Kbps (48kHz/24-bit) LPCM 2.0 2304Kbps (48kHz/24-bit)
<---- END SUMMARY PASTE ---->
<--- BEGIN DETAILS PASTE --->
DISC INFO:
Disc Title:     THE_BIG_4_LIVE_DISC_1
Disc Size:      48 276 147 448 bytes
Protection:     AACS
BD-Java:        No
PLAYLIST REPORT:
Name:                   00003.MPLS
Size:                   15 459 268 608 bytes
Length:                 1:01:17 (h:m:s)
Total Bitrate:          33,63 Mbps
Description:
VIDEO:
Codec                   Bitrate             Description
-----                   -------             -----------
MPEG-4 AVC Video        24006 kbps          1080i / 29,970 fps / 16:9 / High Profile 4.1
AUDIO:
Codec                           Language        Bitrate         Description
-----                           --------        -------         -----------
DTS-HD Master Audio             English         5567 kbps       5.1 / 48 kHz / 5567 kbps / 24-bit (DTS Core: 5.1 / 48 kHz / 1536 kbps / 24-bit)
LPCM Audio                      English         2304 kbps       2.0 / 48 kHz / 2304 kbps / 24-bit
FILES:
Name            Time In         Length          Size            Total Bitrate
----            -------         ------          ----            -------------
00004.M2TS      0:00:00.000     1:01:17.040     15 459 268 608  33 634
CHAPTERS:
Number          Time In         Length          Avg Video Rate  Max 1-Sec Rate  Max 1-Sec Time  Max 5-Sec Rate  Max 5-Sec Time  Max 10Sec Rate  Max 10Sec Time  Avg Frame Size  Max Frame Size  Max Frame Time
------          -------         ------          --------------  --------------  --------------  --------------  --------------  --------------  --------------  --------------  --------------  --------------
1               0:00:00.000     0:06:19.112     23 585 kbps     50 977 kbps     00:01:26.686    37 259 kbps     00:06:07.133    32 202 kbps     00:00:37.303    98 359 bytes    765 508 bytes   00:04:36.409
2               0:06:19.112     0:04:18.324     24 845 kbps     42 001 kbps     00:07:28.214    33 320 kbps     00:07:24.610    30 337 kbps     00:07:47.200    103 622 bytes   698 794 bytes   00:07:03.956
3               0:10:37.436     0:05:23.589     25 263 kbps     42 303 kbps     00:12:58.477    33 586 kbps     00:14:14.853    32 605 kbps     00:14:43.449    105 369 bytes   563 172 bytes   00:12:58.511
4               0:16:01.026     0:03:09.756     23 909 kbps     40 014 kbps     00:16:54.680    33 464 kbps     00:17:16.635    31 458 kbps     00:16:47.639    99 719 bytes    644 290 bytes   00:18:13.325
5               0:19:10.782     0:06:28.121     23 813 kbps     42 474 kbps     00:21:49.474    37 298 kbps     00:20:40.505    31 634 kbps     00:20:34.933    99 321 bytes    765 120 bytes   00:22:33.685
6               0:25:38.904     0:05:34.467     25 962 kbps     44 034 kbps     00:27:53.972    37 247 kbps     00:30:50.682    35 758 kbps     00:30:50.682    108 282 bytes   486 772 bytes   00:28:57.168
7               0:31:13.371     0:05:07.874     23 519 kbps     41 452 kbps     00:35:41.772    33 104 kbps     00:35:38.803    30 748 kbps     00:33:56.868    98 094 bytes    581 428 bytes   00:36:00.725
8               0:36:21.245     0:05:13.012     22 886 kbps     41 675 kbps     00:40:38.002    37 305 kbps     00:40:36.033    32 952 kbps     00:40:31.629    95 455 bytes    615 488 bytes   00:40:22.686
9               0:41:34.258     0:04:14.020     23 088 kbps     43 491 kbps     00:43:59.103    35 452 kbps     00:44:34.204    30 868 kbps     00:44:30.601    96 295 bytes    712 787 bytes   00:44:36.707
10              0:45:48.278     0:05:50.750     24 093 kbps     43 183 kbps     00:49:42.813    35 836 kbps     00:49:42.713    30 069 kbps     00:49:15.552    100 488 bytes   583 207 bytes   00:48:10.487
11              0:51:39.029     0:04:18.825     23 811 kbps     41 449 kbps     00:54:30.000    35 493 kbps     00:54:11.314    31 905 kbps     00:55:41.571    99 312 bytes    738 942 bytes   00:52:00.550
12              0:55:57.854     0:05:19.185     23 159 kbps     45 384 kbps     00:59:11.614    38 069 kbps     00:59:11.614    32 623 kbps     00:59:09.412    96 604 bytes    754 445 bytes   00:59:12.482
STREAM DIAGNOSTICS:
File            PID             Type            Codec           Language                Seconds                 Bitrate                 Bytes           Packets
----            ---             ----            -----           --------                --------------          --------------          -------------   -----
00004.M2TS      4113 (0x1011)   0x1B            AVC                                     3677,040                24 006                  11 033 969 801  60 032 189
00004.M2TS      4352 (0x1100)   0x80            LPCM            eng (English)           3677,040                2 309                   1 061 455 520   5 880 640
00004.M2TS      4353 (0x1101)   0x86            DTS-HD MA       eng (English)           3677,040                5 567                   2 558 835 900   14 481 004
<---- END DETAILS PASTE ---->
********************
PLAYLIST: 00004.MPLS
********************
<--- BEGIN SUMMARY PASTE --->
Total   Video
Title                                                           Codec   Length  Movie Size      Disc Size       Bitrate Bitrate Main Audio Track                          Secondary Audio Track
-----                                                           ------  ------- --------------  --------------  ------- ------- ------------------                        ---------------------
00004.MPLS                                                      AVC     0:03:11 357 961 728     48 276 147 448  14,99   6,01    DTS-HD Master 5.1 5699Kbps (48kHz/24-bit) LPCM 2.0 2304Kbps (48kHz/24-bit)
<---- END SUMMARY PASTE ---->
<--- BEGIN DETAILS PASTE --->
DISC INFO:
Disc Title:     THE_BIG_4_LIVE_DISC_1
Disc Size:      48 276 147 448 bytes
Protection:     AACS
BD-Java:        No
PLAYLIST REPORT:
Name:                   00004.MPLS
Size:                   357 961 728 bytes
Length:                 0:03:11 (h:m:s)
Total Bitrate:          14,99 Mbps
Description:
VIDEO:
Codec                   Bitrate             Description
-----                   -------             -----------
MPEG-4 AVC Video        6009 kbps           1080i / 29,970 fps / 16:9 / High Profile 4.1
AUDIO:
Codec                           Language        Bitrate         Description
-----                           --------        -------         -----------
DTS-HD Master Audio             English         5699 kbps       5.1 / 48 kHz / 5699 kbps / 24-bit (DTS Core: 5.1 / 48 kHz / 1536 kbps / 24-bit)
LPCM Audio                      English         2304 kbps       2.0 / 48 kHz / 2304 kbps / 24-bit
FILES:
Name            Time In         Length          Size            Total Bitrate
----            -------         ------          ----            -------------
00005.M2TS      0:00:00.000     0:03:11.024     357 961 728     14 991
CHAPTERS:
Number          Time In         Length          Avg Video Rate  Max 1-Sec Rate  Max 1-Sec Time  Max 5-Sec Rate  Max 5-Sec Time  Max 10Sec Rate  Max 10Sec Time  Avg Frame Size  Max Frame Size  Max Frame Time
------          -------         ------          --------------  --------------  --------------  --------------  --------------  --------------  --------------  --------------  --------------  --------------
1               0:00:00.000     0:03:11.024     6 009 kbps      13 368 kbps     00:03:08.955    9 451 kbps      00:02:28.114    8 626 kbps      00:02:24.110    25 061 bytes    149 771 bytes   00:02:32.952
STREAM DIAGNOSTICS:
File            PID             Type            Codec           Language                Seconds                 Bitrate                 Bytes           Packets
----            ---             ----            -----           --------                --------------          --------------          -------------   -----
00005.M2TS      4113 (0x1011)   0x1B            AVC                                     191,024                 6 009                   143 474 987     783 066
00005.M2TS      4352 (0x1100)   0x80            LPCM            eng (English)           191,024                 2 310                   55 160 800      305 600
00005.M2TS      4353 (0x1101)   0x86            DTS-HD MA       eng (English)           191,024                 5 699                   136 071 312     769 265
<---- END DETAILS PASTE ---->
********************
PLAYLIST: 00000.MPLS
********************
<--- BEGIN SUMMARY PASTE --->
Total   Video
Title                                                           Codec   Length  Movie Size      Disc Size       Bitrate Bitrate Main Audio Track                          Secondary Audio Track
-----                                                           ------  ------- --------------  --------------  ------- ------- ------------------                        ---------------------
00000.MPLS                                                      AVC     0:00:21 42 399 744      48 276 147 448  16,11   11,44   DD AC3 2.0 2304Kbps (48kHz/24-bit)
<---- END SUMMARY PASTE ---->
<--- BEGIN DETAILS PASTE --->
DISC INFO:
Disc Title:     THE_BIG_4_LIVE_DISC_1
Disc Size:      48 276 147 448 bytes
Protection:     AACS
BD-Java:        No
PLAYLIST REPORT:
Name:                   00000.MPLS
Size:                   42 399 744 bytes
Length:                 0:00:21 (h:m:s)
Total Bitrate:          16,11 Mbps
Description:
VIDEO:
Codec                   Bitrate             Description
-----                   -------             -----------
MPEG-4 AVC Video        11443 kbps          1080i / 29,970 fps / 16:9 / High Profile 4.1
AUDIO:
Codec                           Language        Bitrate         Description
-----                           --------        -------         -----------
Dolby Digital Audio             English         2304 kbps       2.0 / 48 kHz / 2304 kbps / 24-bit
Dolby Digital Audio             English         2304 kbps       2.0 / 48 kHz / 2304 kbps / 24-bit
FILES:
Name            Time In         Length          Size            Total Bitrate
----            -------         ------          ----            -------------
00000.M2TS      0:00:00.000     0:00:10.043     7 624 704       6 073
00001.M2TS      0:00:10.043     0:00:11.010     34 775 040      25 266
CHAPTERS:
Number          Time In         Length          Avg Video Rate  Max 1-Sec Rate  Max 1-Sec Time  Max 5-Sec Rate  Max 5-Sec Time  Max 10Sec Rate  Max 10Sec Time  Avg Frame Size  Max Frame Size  Max Frame Time
------          -------         ------          --------------  --------------  --------------  --------------  --------------  --------------  --------------  --------------  --------------  --------------
1               0:00:00.000     0:00:21.054     11 443 kbps     34 261 kbps     00:00:15.448    24 423 kbps     00:00:11.010    21 355 kbps     00:00:10.810    47 727 bytes    257 118 bytes   00:00:15.849
STREAM DIAGNOSTICS:
File            PID             Type            Codec           Language                Seconds                 Bitrate                 Bytes           Packets
----            ---             ----            -----           --------                --------------          --------------          -------------   -----
00000.M2TS      4113 (0x1011)   0x1B            AVC                                     10,043                  2 692                   3 379 625       18 515
00000.M2TS      4352 (0x1100)   0x81            AC3             eng (English)           10,043                  1 433                   1 799 168       10 040
00000.M2TS      4353 (0x1101)   0x81            AC3             eng (English)           10,043                  1 433                   1 799 168       10 040
00001.M2TS      4113 (0x1011)   0x1B            AVC                                     11,011                  19 425                  26 736 275      145 500
00001.M2TS      4352 (0x1100)   0x81            AC3             eng (English)           11,011                  2 310                   3 179 688       17 616
00001.M2TS      4353 (0x1101)   0x81            AC3             eng (English)           11,011                  2 310                   3 179 688       17 616
<---- END DETAILS PASTE ---->

BDinfo№2

Disc Title: THE_BIG_4_LIVE_DISC_2
Disc Size: 46 322 234 836 bytes
Protection: AACS
BD-Java: No
Notes:
BDINFO HOME AND REPORTS SUBMISSION:
Cinema Squid
http://www.cinemasquid.com/Tools.aspx
INCLUDES FORUMS REPORT FOR:
Unofficial Blu-ray Audio and Video Specifications Thread
http://www.avsforum.com/avs-vb/showthread.php?t=760714
http://forum.blu-ray.com/showthread.php?t=3338
********************
PLAYLIST: 00003.MPLS
********************
<--- BEGIN SUMMARY PASTE --->
Total   Video
Title                                                           Codec   Length  Movie Size      Disc Size       Bitrate Bitrate Main Audio Track                          Secondary Audio Track
-----                                                           ------  ------- --------------  --------------  ------- ------- ------------------                        ---------------------
00003.MPLS                                                      AVC     2:12:02 36 071 251 968  46 322 234 836  36,43   26,79   DTS-HD Master 5.1 5463Kbps (48kHz/24-bit) LPCM 2.0 2304Kbps (48kHz/24-bit)
<---- END SUMMARY PASTE ---->
<--- BEGIN DETAILS PASTE --->
DISC INFO:
Disc Title:     THE_BIG_4_LIVE_DISC_2
Disc Size:      46 322 234 836 bytes
Protection:     AACS
BD-Java:        No
PLAYLIST REPORT:
Name:                   00003.MPLS
Size:                   36 071 251 968 bytes
Length:                 2:12:02 (h:m:s)
Total Bitrate:          36,43 Mbps
Description:
VIDEO:
Codec                   Bitrate             Description
-----                   -------             -----------
MPEG-4 AVC Video        26785 kbps          1080i / 29,970 fps / 16:9 / High Profile 4.1
AUDIO:
Codec                           Language        Bitrate         Description
-----                           --------        -------         -----------
DTS-HD Master Audio             English         5463 kbps       5.1 / 48 kHz / 5463 kbps / 24-bit (DTS Core: 5.1 / 48 kHz / 1536 kbps / 24-bit)
LPCM Audio                      English         2304 kbps       2.0 / 48 kHz / 2304 kbps / 24-bit
FILES:
Name            Time In         Length          Size            Total Bitrate
----            -------         ------          ----            -------------
00005.M2TS      0:00:00.000     0:00:30.163     87 386 112      23 177
00006.M2TS      0:00:30.163     0:00:10.009     26 173 440      20 918
00002.M2TS      0:00:40.173     2:08:10.983     35 599 730 688  37 030
00004.M2TS      2:08:51.156     0:03:11.024     357 961 728     14 991
CHAPTERS:
Number          Time In         Length          Avg Video Rate  Max 1-Sec Rate  Max 1-Sec Time  Max 5-Sec Rate  Max 5-Sec Time  Max 10Sec Rate  Max 10Sec Time  Avg Frame Size  Max Frame Size  Max Frame Time
------          -------         ------          --------------  --------------  --------------  --------------  --------------  --------------  --------------  --------------  --------------  --------------
1               0:00:00.000     0:00:30.130     14 926 kbps     29 453 kbps     00:00:15.815    20 153 kbps     00:00:24.090    19 130 kbps     00:00:09.209    62 187 bytes    201 815 bytes   00:00:09.609
2               0:00:30.130     0:02:08.428     22 583 kbps     38 830 kbps     00:02:06.426    35 760 kbps     00:01:44.103    34 637 kbps     00:01:43.703    94 188 bytes    481 021 bytes   00:02:32.151
3               0:02:38.558     0:06:09.602     30 096 kbps     38 125 kbps     00:04:28.334    32 932 kbps     00:02:45.131    32 283 kbps     00:08:21.300    125 527 bytes   470 517 bytes   00:04:46.586
4               0:08:48.160     0:04:34.073     28 095 kbps     39 846 kbps     00:13:07.186    34 998 kbps     00:13:03.983    32 174 kbps     00:10:45.144    117 181 bytes   469 921 bytes   00:11:11.804
5               0:13:22.234     0:03:52.765     30 308 kbps     37 096 kbps     00:13:27.006    34 194 kbps     00:13:25.304    32 123 kbps     00:16:34.026    126 409 bytes   447 383 bytes   00:15:39.138
6               0:17:15.000     0:06:40.133     29 077 kbps     40 125 kbps     00:20:01.934    32 997 kbps     00:17:35.888    32 197 kbps     00:22:01.787    121 277 bytes   478 641 bytes   00:23:42.888
7               0:23:55.133     0:07:32.218     29 271 kbps     38 281 kbps     00:26:54.946    34 860 kbps     00:24:01.173    32 251 kbps     00:25:02.400    122 085 bytes   480 580 bytes   00:30:40.438
8               0:31:27.352     0:06:47.840     24 917 kbps     42 329 kbps     00:32:03.021    37 778 kbps     00:31:59.784    34 965 kbps     00:31:58.249    103 926 bytes   474 952 bytes   00:37:36.621
9               0:38:15.192     0:06:33.159     28 343 kbps     39 524 kbps     00:41:53.377    32 872 kbps     00:41:50.741    32 136 kbps     00:39:39.243    118 214 bytes   470 265 bytes   00:41:53.978
10              0:44:48.352     0:07:20.573     27 466 kbps     42 264 kbps     00:45:22.152    37 623 kbps     00:45:19.683    35 723 kbps     00:45:19.616    114 557 bytes   480 124 bytes   00:44:53.023
11              0:52:08.925     0:06:14.907     25 649 kbps     40 002 kbps     00:55:06.536    35 983 kbps     00:53:58.435    34 061 kbps     00:52:59.643    106 976 bytes   480 483 bytes   00:53:05.248
12              0:58:23.833     0:07:48.367     28 100 kbps     41 089 kbps     01:00:18.448    33 158 kbps     00:59:06.943    32 350 kbps     01:04:03.105    117 201 bytes   473 538 bytes   00:59:27.397
13              1:06:12.201     0:08:27.039     23 224 kbps     42 477 kbps     01:09:37.873    37 735 kbps     01:07:52.201    35 631 kbps     01:07:48.097    96 863 bytes    479 333 bytes   01:07:09.825
14              1:14:39.241     0:08:12.124     27 610 kbps     40 925 kbps     01:22:45.827    35 584 kbps     01:22:45.827    33 649 kbps     01:18:47.322    115 158 bytes   470 479 bytes   01:18:19.661
15              1:22:51.366     0:07:57.677     26 192 kbps     42 286 kbps     01:23:30.672    37 770 kbps     01:30:22.583    35 568 kbps     01:30:21.983    109 244 bytes   478 595 bytes   01:30:26.721
16              1:30:49.043     0:05:57.824     22 467 kbps     44 709 kbps     01:33:39.380    38 592 kbps     01:33:58.733    35 701 kbps     01:36:24.311    93 706 bytes    481 105 bytes   01:33:40.214
17              1:36:46.867     0:08:19.465     27 745 kbps     41 645 kbps     01:42:36.016    37 152 kbps     01:44:44.044    34 419 kbps     01:44:43.243    115 721 bytes   478 950 bytes   01:37:39.820
18              1:45:06.333     0:08:39.185     28 944 kbps     41 429 kbps     01:46:19.606    35 292 kbps     01:45:29.456    32 375 kbps     01:52:24.637    120 720 bytes   474 279 bytes   01:45:32.059
19              1:53:45.518     0:04:38.645     27 756 kbps     37 885 kbps     01:57:49.896    34 276 kbps     01:53:50.156    31 803 kbps     01:55:04.063    115 765 bytes   480 369 bytes   01:53:54.327
20              1:58:24.163     0:07:47.300     29 251 kbps     41 833 kbps     01:59:34.867    36 877 kbps     01:59:33.166    33 560 kbps     01:59:33.166    122 002 bytes   481 095 bytes   01:59:33.299
21              2:06:11.463     0:02:39.592     28 606 kbps     39 195 kbps     02:07:44.490    35 391 kbps     02:08:17.856    33 792 kbps     02:08:17.856    119 309 bytes   470 327 bytes   02:07:44.590
22              2:08:51.056     0:03:11.124     6 006 kbps      13 368 kbps     02:12:00.112    9 451 kbps      02:11:19.271    8 626 kbps      02:11:15.267    25 053 bytes    149 771 bytes   02:11:24.109
STREAM DIAGNOSTICS:
File            PID             Type            Codec           Language                Seconds                 Bitrate                 Bytes           Packets
----            ---             ----            -----           --------                --------------          --------------          -------------   -----
00005.M2TS      4113 (0x1011)   0x1B            AVC                                     30,163                  14 910                  56 216 750      306 050
00005.M2TS      4352 (0x1100)   0x80            LPCM            eng (English)           30,163                  2 311                   8 711 652       48 264
00005.M2TS      4353 (0x1101)   0x86            DTS-HD MA       eng (English)           30,163                  4 635                   17 474 392      99 768
00006.M2TS      4113 (0x1011)   0x1B            AVC                                     10,010                  14 711                  18 406 650      100 213
00006.M2TS      4352 (0x1100)   0x80            LPCM            eng (English)           10,010                  2 295                   2 872 116       15 912
00006.M2TS      4353 (0x1101)   0x86            DTS-HD MA       eng (English)           10,010                  2 685                   3 359 652       19 813
00002.M2TS      4113 (0x1011)   0x1B            AVC                                     7690,983                27 364                  26 306 789 091  143 107 587
00002.M2TS      4352 (0x1100)   0x80            LPCM            eng (English)           7690,983                2 310                   2 221 160 800   12 305 600
00002.M2TS      4353 (0x1101)   0x86            DTS-HD MA       eng (English)           7690,983                5 464                   5 252 510 560   29 744 400
00004.M2TS      4113 (0x1011)   0x1B            AVC                                     191,024                 6 009                   143 474 987     783 066
00004.M2TS      4352 (0x1100)   0x80            LPCM            eng (English)           191,024                 2 310                   55 160 800      305 600
00004.M2TS      4353 (0x1101)   0x86            DTS-HD MA       eng (English)           191,024                 5 699                   136 071 312     769 265
<---- END DETAILS PASTE ---->
********************
PLAYLIST: 00004.MPLS
********************
<--- BEGIN SUMMARY PASTE --->
Total   Video
Title                                                           Codec   Length  Movie Size      Disc Size       Bitrate Bitrate Main Audio Track                          Secondary Audio Track
-----                                                           ------  ------- --------------  --------------  ------- ------- ------------------                        ---------------------
00004.MPLS                                                      AVC     2:08:20 35 625 904 128  46 322 234 836  37,01   27,35   DTS-HD Master 5.1 5460Kbps (48kHz/24-bit) LPCM 2.0 2304Kbps (48kHz/24-bit)
<---- END SUMMARY PASTE ---->
<--- BEGIN DETAILS PASTE --->
DISC INFO:
Disc Title:     THE_BIG_4_LIVE_DISC_2
Disc Size:      46 322 234 836 bytes
Protection:     AACS
BD-Java:        No
PLAYLIST REPORT:
Name:                   00004.MPLS
Size:                   35 625 904 128 bytes
Length:                 2:08:20 (h:m:s)
Total Bitrate:          37,01 Mbps
Description:
VIDEO:
Codec                   Bitrate             Description
-----                   -------             -----------
MPEG-4 AVC Video        27347 kbps          1080i / 29,970 fps / 16:9 / High Profile 4.1
AUDIO:
Codec                           Language        Bitrate         Description
-----                           --------        -------         -----------
DTS-HD Master Audio             English         5460 kbps       5.1 / 48 kHz / 5460 kbps / 24-bit (DTS Core: 5.1 / 48 kHz / 1536 kbps / 24-bit)
LPCM Audio                      English         2304 kbps       2.0 / 48 kHz / 2304 kbps / 24-bit
FILES:
Name            Time In         Length          Size            Total Bitrate
----            -------         ------          ----            -------------
00006.M2TS      0:00:00.000     0:00:10.009     26 173 440      20 918
00002.M2TS      0:00:10.009     2:08:10.983     35 599 730 688  37 030
CHAPTERS:
Number          Time In         Length          Avg Video Rate  Max 1-Sec Rate  Max 1-Sec Time  Max 5-Sec Rate  Max 5-Sec Time  Max 10Sec Rate  Max 10Sec Time  Avg Frame Size  Max Frame Size  Max Frame Time
------          -------         ------          --------------  --------------  --------------  --------------  --------------  --------------  --------------  --------------  --------------  --------------
1               0:00:00.000     0:02:08.394     22 589 kbps     38 830 kbps     00:01:36.262    35 760 kbps     00:01:13.940    34 637 kbps     00:01:13.540    94 188 bytes    481 021 bytes   00:02:01.988
2               0:02:08.394     0:06:09.602     30 096 kbps     38 125 kbps     00:03:58.171    32 932 kbps     00:02:14.968    32 283 kbps     00:07:51.137    125 527 bytes   470 517 bytes   00:04:16.422
3               0:08:17.997     0:04:34.073     28 095 kbps     39 846 kbps     00:12:37.022    34 998 kbps     00:12:33.819    32 174 kbps     00:10:14.981    117 181 bytes   469 921 bytes   00:10:41.641
4               0:12:52.071     0:03:52.765     30 308 kbps     37 096 kbps     00:12:56.842    34 194 kbps     00:12:55.141    32 123 kbps     00:16:03.862    126 409 bytes   447 383 bytes   00:15:08.974
5               0:16:44.837     0:06:40.133     29 077 kbps     40 125 kbps     00:19:31.770    32 997 kbps     00:17:05.724    32 197 kbps     00:21:31.623    121 277 bytes   478 641 bytes   00:23:12.724
6               0:23:24.970     0:07:32.218     29 271 kbps     38 281 kbps     00:26:24.783    34 860 kbps     00:23:31.009    32 251 kbps     00:24:32.237    122 085 bytes   480 580 bytes   00:30:10.275
7               0:30:57.188     0:06:47.840     24 917 kbps     42 329 kbps     00:31:32.857    37 778 kbps     00:31:29.621    34 965 kbps     00:31:28.086    103 926 bytes   474 952 bytes   00:37:06.457
8               0:37:45.029     0:06:33.159     28 343 kbps     39 524 kbps     00:41:23.214    32 872 kbps     00:41:20.578    32 136 kbps     00:39:09.080    118 214 bytes   470 265 bytes   00:41:23.814
9               0:44:18.188     0:07:20.573     27 466 kbps     42 264 kbps     00:44:51.989    37 623 kbps     00:44:49.520    35 723 kbps     00:44:49.453    114 557 bytes   480 124 bytes   00:44:22.860
10              0:51:38.762     0:06:14.907     25 649 kbps     40 002 kbps     00:54:36.373    35 983 kbps     00:53:28.271    34 061 kbps     00:52:29.479    106 976 bytes   480 483 bytes   00:52:35.085
11              0:57:53.670     0:07:48.367     28 100 kbps     41 089 kbps     00:59:48.284    33 158 kbps     00:58:36.779    32 350 kbps     01:03:32.942    117 201 bytes   473 538 bytes   00:58:57.233
12              1:05:42.038     0:08:27.039     23 224 kbps     42 477 kbps     01:09:07.710    37 735 kbps     01:07:22.038    35 631 kbps     01:07:17.933    96 863 bytes    479 333 bytes   01:06:39.662
13              1:14:09.077     0:08:12.124     27 610 kbps     40 925 kbps     01:22:15.664    35 584 kbps     01:22:15.664    33 649 kbps     01:18:17.159    115 158 bytes   470 479 bytes   01:17:49.498
14              1:22:21.202     0:07:57.677     26 192 kbps     42 286 kbps     01:23:00.508    37 770 kbps     01:29:52.420    35 568 kbps     01:29:51.819    109 244 bytes   478 595 bytes   01:29:56.557
15              1:30:18.880     0:05:57.824     22 467 kbps     44 709 kbps     01:33:09.216    38 592 kbps     01:33:28.569    35 701 kbps     01:35:54.148    93 706 bytes    481 105 bytes   01:33:10.051
16              1:36:16.704     0:08:19.465     27 745 kbps     41 645 kbps     01:42:05.853    37 152 kbps     01:44:13.880    34 419 kbps     01:44:13.080    115 721 bytes   478 950 bytes   01:37:09.657
17              1:44:36.169     0:08:39.185     28 944 kbps     41 429 kbps     01:45:49.443    35 292 kbps     01:44:59.293    32 375 kbps     01:51:54.474    120 720 bytes   474 279 bytes   01:45:01.895
18              1:53:15.355     0:04:38.645     27 756 kbps     37 885 kbps     01:57:19.732    34 276 kbps     01:53:19.993    31 803 kbps     01:54:33.900    115 765 bytes   480 369 bytes   01:53:24.164
19              1:57:54.000     0:07:47.300     29 251 kbps     41 833 kbps     01:59:04.704    36 877 kbps     01:59:03.002    33 560 kbps     01:59:03.002    122 002 bytes   481 095 bytes   01:59:03.136
20              2:05:41.300     0:02:39.692     28 588 kbps     39 195 kbps     02:07:14.326    35 391 kbps     02:07:47.693    33 792 kbps     02:07:47.693    119 259 bytes   470 327 bytes   02:07:14.426
STREAM DIAGNOSTICS:
File            PID             Type            Codec           Language                Seconds                 Bitrate                 Bytes           Packets
----            ---             ----            -----           --------                --------------          --------------          -------------   -----
00006.M2TS      4113 (0x1011)   0x1B            AVC                                     10,010                  14 711                  18 406 650      100 213
00006.M2TS      4352 (0x1100)   0x80            LPCM            eng (English)           10,010                  2 295                   2 872 116       15 912
00006.M2TS      4353 (0x1101)   0x86            DTS-HD MA       eng (English)           10,010                  2 685                   3 359 652       19 813
00002.M2TS      4113 (0x1011)   0x1B            AVC                                     7690,983                27 364                  26 306 789 091  143 107 587
00002.M2TS      4352 (0x1100)   0x80            LPCM            eng (English)           7690,983                2 310                   2 221 160 800   12 305 600
00002.M2TS      4353 (0x1101)   0x86            DTS-HD MA       eng (English)           7690,983                5 464                   5 252 510 560   29 744 400
<---- END DETAILS PASTE ---->
********************
PLAYLIST: 00002.MPLS
********************
<--- BEGIN SUMMARY PASTE --->
Total   Video
Title                                                           Codec   Length  Movie Size      Disc Size       Bitrate Bitrate Main Audio Track                          Secondary Audio Track
-----                                                           ------  ------- --------------  --------------  ------- ------- ------------------                        ---------------------
00002.MPLS                                                      AVC     0:49:12 9 716 404 224   46 322 234 836  26,32   22,58   LPCM 2.0 2304Kbps (48kHz/24-bit)
<---- END SUMMARY PASTE ---->
<--- BEGIN DETAILS PASTE --->
DISC INFO:
Disc Title:     THE_BIG_4_LIVE_DISC_2
Disc Size:      46 322 234 836 bytes
Protection:     AACS
BD-Java:        No
PLAYLIST REPORT:
Name:                   00002.MPLS
Size:                   9 716 404 224 bytes
Length:                 0:49:12 (h:m:s)
Total Bitrate:          26,32 Mbps
Description:
VIDEO:
Codec                   Bitrate             Description
-----                   -------             -----------
MPEG-4 AVC Video        22576 kbps          1080i / 29,970 fps / 16:9 / High Profile 4.1
AUDIO:
Codec                           Language        Bitrate         Description
-----                           --------        -------         -----------
LPCM Audio                      English         2304 kbps       2.0 / 48 kHz / 2304 kbps / 24-bit
SUBTITLES:
Codec                           Language        Bitrate         Description
-----                           --------        -------         -----------
Presentation Graphics           English         39,123 kbps
Presentation Graphics           Braj            35,909 kbps
Presentation Graphics           French          34,288 kbps
Presentation Graphics           German          37,666 kbps
Presentation Graphics           Japanese        24,242 kbps
Presentation Graphics           Spanish         34,276 kbps
FILES:
Name            Time In         Length          Size            Total Bitrate
----            -------         ------          ----            -------------
00003.M2TS      0:00:00.000     0:49:12.983     9 716 404 224   26 323
CHAPTERS:
Number          Time In         Length          Avg Video Rate  Max 1-Sec Rate  Max 1-Sec Time  Max 5-Sec Rate  Max 5-Sec Time  Max 10Sec Rate  Max 10Sec Time  Avg Frame Size  Max Frame Size  Max Frame Time
------          -------         ------          --------------  --------------  --------------  --------------  --------------  --------------  --------------  --------------  --------------  --------------
1               0:00:00.000     0:02:36.389     25 430 kbps     46 433 kbps     00:01:40.900    42 116 kbps     00:01:39.632    38 325 kbps     00:01:37.797    106 043 bytes   589 685 bytes   00:00:05.605
2               0:02:36.389     0:05:12.078     19 658 kbps     36 576 kbps     00:06:34.227    33 732 kbps     00:06:34.160    32 705 kbps     00:06:31.958    81 992 bytes    480 288 bytes   00:05:50.683
3               0:07:48.468     0:05:06.172     19 480 kbps     40 149 kbps     00:10:08.708    35 263 kbps     00:09:24.330    33 585 kbps     00:09:19.091    81 250 bytes    446 119 bytes   00:08:46.526
4               0:12:54.640     0:04:15.188     21 612 kbps     35 512 kbps     00:15:50.716    31 681 kbps     00:15:46.712    30 001 kbps     00:15:20.019    90 140 bytes    467 919 bytes   00:15:42.007
5               0:17:09.828     0:03:58.638     16 539 kbps     29 776 kbps     00:21:04.563    24 826 kbps     00:20:23.922    23 054 kbps     00:20:22.821    68 980 bytes    349 396 bytes   00:21:06.331
6               0:21:08.467     0:05:36.002     23 299 kbps     46 576 kbps     00:21:45.337    39 602 kbps     00:21:44.136    35 494 kbps     00:22:06.658    97 174 bytes    747 054 bytes   00:21:51.877
7               0:26:44.469     0:04:53.226     24 182 kbps     47 856 kbps     00:28:49.861    42 117 kbps     00:28:47.459    38 437 kbps     00:28:47.459    100 859 bytes   553 165 bytes   00:31:24.949
8               0:31:37.695     0:04:40.413     19 938 kbps     32 758 kbps     00:35:56.787    28 875 kbps     00:35:52.783    28 438 kbps     00:35:47.812    83 158 bytes    339 447 bytes   00:33:10.088
9               0:36:18.109     0:02:19.005     20 883 kbps     46 968 kbps     00:36:39.363    42 430 kbps     00:36:36.827    38 026 kbps     00:36:32.924    87 100 bytes    513 267 bytes   00:36:39.564
10              0:38:37.114     0:01:52.579     25 639 kbps     39 974 kbps     00:38:57.001    34 131 kbps     00:39:16.520    29 930 kbps     00:38:37.281    106 938 bytes   452 510 bytes   00:40:29.693
11              0:40:29.693     0:03:45.425     30 762 kbps     46 210 kbps     00:40:30.327    41 805 kbps     00:40:29.693    37 763 kbps     00:40:29.693    128 303 bytes   533 245 bytes   00:40:30.494
12              0:44:15.119     0:04:57.864     26 501 kbps     49 950 kbps     00:44:52.456    41 619 kbps     00:45:16.180    38 216 kbps     00:48:21.732    110 544 bytes   787 048 bytes   00:48:59.202
STREAM DIAGNOSTICS:
File            PID             Type            Codec           Language                Seconds                 Bitrate                 Bytes           Packets
----            ---             ----            -----           --------                --------------          --------------          -------------   -----
00003.M2TS      4113 (0x1011)   0x1B            AVC                                     2952,983                22 576                  8 333 238 478   45 341 222
00003.M2TS      4352 (0x1100)   0x80            LPCM            eng (English)           2952,983                2 311                   853 115 200     4 726 400
00003.M2TS      4608 (0x1200)   0x90            PGS             eng (English)           2952,983                39                      14 441 138      83 041
00003.M2TS      4609 (0x1201)   0x90            PGS             spa (Spanish)           2952,983                34                      12 651 955      73 340
00003.M2TS      4610 (0x1202)   0x90            PGS             fra (French)            2952,983                34                      12 656 323      73 369
00003.M2TS      4611 (0x1203)   0x90            PGS             deu (German)            2952,983                38                      13 903 480      80 049
00003.M2TS      4612 (0x1204)   0x90            PGS             bra (Braj)              2952,983                36                      13 254 797      76 653
00003.M2TS      4613 (0x1205)   0x90            PGS             jpn (Japanese)          2952,983                24                      8 948 297       53 211
<---- END DETAILS PASTE ---->
********************
PLAYLIST: 00007.MPLS
********************
<--- BEGIN SUMMARY PASTE --->
Total   Video
Title                                                           Codec   Length  Movie Size      Disc Size       Bitrate Bitrate Main Audio Track                          Secondary Audio Track
-----                                                           ------  ------- --------------  --------------  ------- ------- ------------------                        ---------------------
00007.MPLS                                                      AVC     0:03:11 357 961 728     46 322 234 836  14,99   6,01    DTS-HD Master 5.1 5699Kbps (48kHz/24-bit) LPCM 2.0 2304Kbps (48kHz/24-bit)
<---- END SUMMARY PASTE ---->
<--- BEGIN DETAILS PASTE --->
DISC INFO:
Disc Title:     THE_BIG_4_LIVE_DISC_2
Disc Size:      46 322 234 836 bytes
Protection:     AACS
BD-Java:        No
PLAYLIST REPORT:
Name:                   00007.MPLS
Size:                   357 961 728 bytes
Length:                 0:03:11 (h:m:s)
Total Bitrate:          14,99 Mbps
Description:
VIDEO:
Codec                   Bitrate             Description
-----                   -------             -----------
MPEG-4 AVC Video        6009 kbps           1080i / 29,970 fps / 16:9 / High Profile 4.1
AUDIO:
Codec                           Language        Bitrate         Description
-----                           --------        -------         -----------
DTS-HD Master Audio             English         5699 kbps       5.1 / 48 kHz / 5699 kbps / 24-bit (DTS Core: 5.1 / 48 kHz / 1536 kbps / 24-bit)
LPCM Audio                      English         2304 kbps       2.0 / 48 kHz / 2304 kbps / 24-bit
FILES:
Name            Time In         Length          Size            Total Bitrate
----            -------         ------          ----            -------------
00004.M2TS      0:00:00.000     0:03:11.024     357 961 728     14 991
CHAPTERS:
Number          Time In         Length          Avg Video Rate  Max 1-Sec Rate  Max 1-Sec Time  Max 5-Sec Rate  Max 5-Sec Time  Max 10Sec Rate  Max 10Sec Time  Avg Frame Size  Max Frame Size  Max Frame Time
------          -------         ------          --------------  --------------  --------------  --------------  --------------  --------------  --------------  --------------  --------------  --------------
1               0:00:00.000     0:03:11.024     6 009 kbps      13 368 kbps     00:03:08.955    9 451 kbps      00:02:28.114    8 626 kbps      00:02:24.110    25 061 bytes    149 771 bytes   00:02:32.952
STREAM DIAGNOSTICS:
File            PID             Type            Codec           Language                Seconds                 Bitrate                 Bytes           Packets
----            ---             ----            -----           --------                --------------          --------------          -------------   -----
00004.M2TS      4113 (0x1011)   0x1B            AVC                                     191,024                 6 009                   143 474 987     783 066
00004.M2TS      4352 (0x1100)   0x80            LPCM            eng (English)           191,024                 2 310                   55 160 800      305 600
00004.M2TS      4353 (0x1101)   0x86            DTS-HD MA       eng (English)           191,024                 5 699                   136 071 312     769 265
<---- END DETAILS PASTE ---->
********************
PLAYLIST: 00000.MPLS
********************
<--- BEGIN SUMMARY PASTE --->
Total   Video
Title                                                           Codec   Length  Movie Size      Disc Size       Bitrate Bitrate Main Audio Track                          Secondary Audio Track
-----                                                           ------  ------- --------------  --------------  ------- ------- ------------------                        ---------------------
00000.MPLS                                                      AVC     0:00:21 63 037 440      46 322 234 836  23,95   11,44   LPCM 2.0 2304Kbps (96kHz/24-bit)          LPCM 2.0 2304Kbps (96kHz/24-bit)
<---- END SUMMARY PASTE ---->
<--- BEGIN DETAILS PASTE --->
DISC INFO:
Disc Title:     THE_BIG_4_LIVE_DISC_2
Disc Size:      46 322 234 836 bytes
Protection:     AACS
BD-Java:        No
PLAYLIST REPORT:
Name:                   00000.MPLS
Size:                   63 037 440 bytes
Length:                 0:00:21 (h:m:s)
Total Bitrate:          23,95 Mbps
Description:
VIDEO:
Codec                   Bitrate             Description
-----                   -------             -----------
MPEG-4 AVC Video        11443 kbps          1080i / 29,970 fps / 16:9 / High Profile 4.1
AUDIO:
Codec                           Language        Bitrate         Description
-----                           --------        -------         -----------
LPCM Audio                      English         2304 kbps       2.0 / 96 kHz / 2304 kbps / 24-bit
LPCM Audio                      English         2304 kbps       2.0 / 96 kHz / 2304 kbps / 24-bit
FILES:
Name            Time In         Length          Size            Total Bitrate
----            -------         ------          ----            -------------
00000.M2TS      0:00:00.000     0:00:10.043     28 262 400      22 512
00001.M2TS      0:00:10.043     0:00:11.010     34 775 040      25 266
CHAPTERS:
Number          Time In         Length          Avg Video Rate  Max 1-Sec Rate  Max 1-Sec Time  Max 5-Sec Rate  Max 5-Sec Time  Max 10Sec Rate  Max 10Sec Time  Avg Frame Size  Max Frame Size  Max Frame Time
------          -------         ------          --------------  --------------  --------------  --------------  --------------  --------------  --------------  --------------  --------------  --------------
1               0:00:00.000     0:00:21.054     11 443 kbps     34 261 kbps     00:00:15.448    24 423 kbps     00:00:11.010    21 355 kbps     00:00:10.810    47 727 bytes    257 118 bytes   00:00:15.849
STREAM DIAGNOSTICS:
File            PID             Type            Codec           Language                Seconds                 Bitrate                 Bytes           Packets
----            ---             ----            -----           --------                --------------          --------------          -------------   -----
00000.M2TS      4113 (0x1011)   0x1B            AVC                                     10,043                  2 692                   3 379 625       18 515
00000.M2TS      4352 (0x1100)   0x80            LPCM            eng (English)           10,043                  9 189                   11 536 000      64 000
00000.M2TS      4353 (0x1101)   0x80            LPCM            eng (English)           10,043                  9 189                   11 536 000      64 000
00001.M2TS      4113 (0x1011)   0x1B            AVC                                     11,011                  19 425                  26 736 275      145 500
00001.M2TS      4352 (0x1100)   0x80            LPCM            eng (English)           11,011                  2 310                   3 179 688       17 616
00001.M2TS      4353 (0x1101)   0x80            LPCM            eng (English)           11,011                  2 310                   3 179 688       17 616
<---- END DETAILS PASTE ---->
[Profile]  [PM] 
Display posts:    
Reply to topic

Current time is: 22-Sep 15:46

All times are UTC + 2



You cannot post new topics in this forum
You cannot reply to topics in this forum
You cannot edit your posts in this forum
You cannot delete your posts in this forum
You cannot vote in polls in this forum
You cannot attach files in this forum
You cannot download files in this forum