Пища Богов / The Food of the Gods (Берт А. Гордон / Bert I. Gordon) [1976, США, ужасы, фантастика, DVD5 (Custom)] [16:9 NTSC R1] VO + Sub Eng Spa Fre + Original Eng + DUB Fre Spa

Reply to topic
 
Author
Message

Faust ®

Gender: Unknown

Longevity: 9 years 6 months

Posts: 14961

Reputation: 0 [+] [-]

Faust · Post 25-May-2014 00:59

[Quote] 

Пища Богов / The Food of the Gods
16:9 NTSC R1
Слоган: «One Taste Is All It Takes!» Страна: США
Студия: American International Pictures (AIP)
Жанр: ужасы, фантастика
Год выпуска: 1976
Продолжительность: 01:28:16
Перевод: Одноголосый закадровый
Cубтитры: испанские, английские, французские, английские[CC]
Оригинальная аудиодорожка: английский
Режиссер: Берт А. Гордон / Bert I. Gordon
В ролях: Марджо Гортнер, Памела Франклин, Ральф Микер, Джон Сайфер, Ида Лупино, Джон МакЛиам, Белинда Баласки, Том Стовэлл, Чак Кортни, Рег Танниклифф ...
Описание: Футболист Морган вместе со своими друзьями отправляется на охоту на небольшой остров близ Канады. Неожиданно на них нападают гигантские осы, которые кусают их. Морган отправляется на поиски телефона, но в крестьянском амбаре его едва не убивает огромный цыплёнок. Владелица фермы миссис Скиннер отказывается предоставить Моргану возможность позвонить. Морган решает покинуть остров…
Доп. информация: Диски собраны из немецкого The Food of the Gods_1976_DVD5 R1 найденного в сети. (Который на постере)
Меню: Статичное, неозвученное, на английском.Меню неотредактировано, переключение звуковых дорожек с пульта.
Фильм стартует с рус. дорожкой.
--Спасибо за рус. одноголосый Гость-- --The Food of the Gods_1976_DVD5 R1_Sample_.rar-
-

Награды


-
-Тип релиза: DVD5 (Custom)
Контейнер: DVD-Video
Видео: NTSC 16:9 (720x480) VBR Auto Letterboxed, ~ 6682.36 kbps avg
Аудио 1: English, AC3, 2/0 (L,R) ch, 192 kbps, Delay 0 mSec
Аудио 2: English, AC3, 2/0 (L,R) ch, 192 kbps, Delay 0 mSec
Аудио 3: Francais, AC3, 2/0 (L,R) ch, 192 kbps, Delay 0 mSec
Аудио 4: Espanol, AC3, 2/0 (L,R) ch, 192 kbps, Delay 0 mSec
Аудио 5: Russian, AC3, 2/0 (L,R) ch, 192 kbps, Delay 0 mSec
Формат субтитров: prerendered (DVD/IDX+SUB), СС (Closed Captions)

MediaInfo

General
Complete name : The Food of the Gods_1976_DVD5 R1\VIDEO_TS\VTS_05_2.VOB
Format : MPEG-PS
File size : 1 024 MiB
Duration : 21mn 24s
Overall bit rate mode : Variable
Overall bit rate : 6 686 Kbps
Video
ID : 224 (0xE0)
Format : MPEG Video
Format version : Version 2
Format profile : Main@Main
Format settings, BVOP : Yes
Format settings, Matrix : Custom
Format settings, GOP : Variable
Duration : 21mn 24s
Bit rate mode : Variable
Bit rate : 5 593 Kbps
Maximum bit rate : 9 800 Kbps
Width : 720 pixels
Height : 480 pixels
Display aspect ratio : 16:9
Frame rate : 23.976 fps
Standard : Component
Color space : YUV
Chroma subsampling : 4:2:0
Bit depth : 8 bits
Scan type : Progressive
Scan order : 2:3 Pulldown
Compression mode : Lossy
Bits/(Pixel*Frame) : 0.675
Time code of first frame : 01:21:30;08
Time code source : Group of pictures header
Stream size : 856 MiB (84%)
Color primaries : BT.601 NTSC
Transfer characteristics : BT.601
Matrix coefficients : BT.601
Audio #1
ID : 189 (0xBD)-128 (0x80)
Format : AC-3
Format/Info : Audio Coding 3
Mode extension : CM (complete main)
Format settings, Endianness : Big
Muxing mode : DVD-Video
Duration : 21mn 24s
Bit rate mode : Constant
Bit rate : 192 Kbps
Channel(s) : 2 channels
Channel positions : Front: L R
Sampling rate : 48.0 KHz
Bit depth : 16 bits
Compression mode : Lossy
Delay relative to video : -677ms
Stream size : 29.4 MiB (3%)
Audio #2
ID : 189 (0xBD)-129 (0x81)
Format : AC-3
Format/Info : Audio Coding 3
Mode extension : CM (complete main)
Format settings, Endianness : Big
Muxing mode : DVD-Video
Duration : 21mn 24s
Bit rate mode : Constant
Bit rate : 192 Kbps
Channel(s) : 2 channels
Channel positions : Front: L R
Sampling rate : 48.0 KHz
Bit depth : 16 bits
Compression mode : Lossy
Delay relative to video : -677ms
Stream size : 29.4 MiB (3%)
Audio #3
ID : 189 (0xBD)-130 (0x82)
Format : AC-3
Format/Info : Audio Coding 3
Mode extension : CM (complete main)
Format settings, Endianness : Big
Muxing mode : DVD-Video
Duration : 21mn 24s
Bit rate mode : Constant
Bit rate : 192 Kbps
Channel(s) : 2 channels
Channel positions : Front: L R
Sampling rate : 48.0 KHz
Bit depth : 16 bits
Compression mode : Lossy
Delay relative to video : -677ms
Stream size : 29.4 MiB (3%)
Audio #4
ID : 189 (0xBD)-131 (0x83)
Format : AC-3
Format/Info : Audio Coding 3
Mode extension : CM (complete main)
Format settings, Endianness : Big
Muxing mode : DVD-Video
Duration : 21mn 24s
Bit rate mode : Constant
Bit rate : 192 Kbps
Channel(s) : 2 channels
Channel positions : Front: L R
Sampling rate : 48.0 KHz
Bit depth : 16 bits
Compression mode : Lossy
Delay relative to video : -677ms
Stream size : 29.4 MiB (3%)
Audio #5
ID : 189 (0xBD)-132 (0x84)
Format : AC-3
Format/Info : Audio Coding 3
Mode extension : CM (complete main)
Format settings, Endianness : Big
Muxing mode : DVD-Video
Duration : 21mn 24s
Bit rate mode : Constant
Bit rate : 192 Kbps
Channel(s) : 2 channels
Channel positions : Front: L R
Sampling rate : 48.0 KHz
Bit depth : 16 bits
Compression mode : Lossy
Delay relative to video : -677ms
Stream size : 29.4 MiB (3%)
Text #1
ID : 189 (0xBD)-32 (0x20)
Format : RLE
Format/Info : Run-length encoding
Muxing mode : DVD-Video
Duration : 21mn 5s
Delay relative to video : 13s 497ms
Text #2
ID : 189 (0xBD)-33 (0x21)
Format : RLE
Format/Info : Run-length encoding
Muxing mode : DVD-Video
Duration : 21mn 5s
Delay relative to video : 13s 497ms
Text #3
ID : 189 (0xBD)-34 (0x22)
Format : RLE
Format/Info : Run-length encoding
Muxing mode : DVD-Video
Duration : 21mn 5s
Delay relative to video : 13s 497ms
Text #4
ID : 189 (0xBD)-35 (0x23)
Format : RLE
Format/Info : Run-length encoding
Muxing mode : DVD-Video
Duration : 21mn 5s
Delay relative to video : 13s 497ms
Text #5
ID : 224 (0xE0)-CC3
Format : EIA-608
Muxing mode, more info : Muxed in Video #1
Bit rate mode : Constant
Stream size : 0.00 Byte (0%)
Text #6
ID : 189 (0xBD)-36 (0x24)
Format : RLE
Format/Info : Run-length encoding
Muxing mode : DVD-Video
Text #7
ID : 189 (0xBD)-37 (0x25)
Format : RLE
Format/Info : Run-length encoding
Muxing mode : DVD-Video
Text #8
ID : 189 (0xBD)-38 (0x26)
Format : RLE
Format/Info : Run-length encoding
Muxing mode : DVD-Video
Text #9
ID : 189 (0xBD)-39 (0x27)
Format : RLE
Format/Info : Run-length encoding
Muxing mode : DVD-Video
Menu

DVD Info

Title: The Food of the Gods_1976_DVD5 R1
Size: 4.15 Gb ( 4 350 140,00 KBytes ) - DVD-5
Enabled regions: 1, 2, 3, 4, 5, 6, 7, 8
VTS_01 :
Play Length: 00:00:00
Video: NTSC 16:9 (720x480) VBR, Auto Pan&Scan
Audio:
Not specified (Dolby AC3, 2 ch)
Not specified (Dolby AC3, 2 ch)
Not specified (Dolby AC3, 2 ch)
Not specified (Dolby AC3, 2 ch)
Not specified (Dolby AC3, 2 ch)
Not specified (Dolby AC3, 2 ch)
Not specified (Dolby AC3, 2 ch)
Not specified (Dolby AC3, 2 ch)
Subtitles:
Not specified
Not specified
Not specified
Not specified
Not specified
Not specified
Not specified
Not specified
Not specified
Not specified
Not specified
Not specified
VTS_02 :
Play Length: 00:00:09
Video: NTSC 16:9 (720x480) VBR, Auto Letterboxed
VTS_03 :
Play Length: 00:00:14
Video: NTSC 16:9 (720x480) VBR, Auto Letterboxed
Audio:
English (Dolby AC3, 6 ch)
VTS_04 :
Play Length: 00:00:13
Video: NTSC 16:9 (720x480) VBR, Auto Letterboxed
Audio:
English (Dolby AC3, 6 ch)
VTS_05 :
Play Length: 01:28:16
Video: NTSC 16:9 (720x480) VBR, Auto Letterboxed
Audio:
English, AC3, 2/0 (L,R) ch, 192 kbps, Delay 0 mSec
English, AC3, 2/0 (L,R) ch, 192 kbps, Delay 0 mSec
Francais, AC3, 2/0 (L,R) ch, 192 kbps, Delay 0 mSec
Espanol, AC3, 2/0 (L,R) ch, 192 kbps, Delay 0 mSec
Russian, AC3, 2/0 (L,R) ch, 192 kbps, Delay 0 mSec
Subtitles:
English
Espanol
Francais
Espanol
* Menus Information *
VIDEO_TS Menu
Video:
NTSC 16:9 (720x480) VBR
Auto Pan&Scan
English Language Unit :
Title Menu
VTS_01 Menu
Video:
NTSC 16:9 (720x480) VBR
Auto Pan&Scan
English Language Unit :
Root Menu
VTS_02 Menu
Video:
NTSC 4:3 (720x480) VBR
Auto Pan&Scan, Auto Letterboxed
English Language Unit :
Root Menu
VTS_03 Menu
Video:
NTSC 4:3 (720x480) VBR
Auto Pan&Scan, Auto Letterboxed
English Language Unit :
Root Menu
VTS_04 Menu
Video:
NTSC 4:3 (720x480) VBR
Auto Pan&Scan, Auto Letterboxed
English Language Unit :
Root Menu
VTS_05 Menu
Video:
NTSC 16:9 (720x480) VBR
Auto Pan&Scan
English Language Unit :
Root Menu
Subpicture Menu
Audio Menu
Angle menu
Chapter (PTT) Menu

П. О.

PgcDemux 1.2.0.5 - разделение компонентов диска на файлы;
BeSweetv1.5b31+BeLight 0.21 - AC3, mp3 -> Wav
Sound Forge pro 10 - Wav -> AC3
MuxMan DVD authoring Professional 1.4.4 - мультиплексирование и авторинг DVD;
DVDRemake Pro 3.6.4 - реавторинг DVD;
DVD Shrink 3.2 - Сэмпл
VLC - Скриншоты-
-
-

-
-
-BeSweet v1.5b31 by DSPguru.
--------------------------
Using azid.dll v1.9 (b922) by Midas (midas@egon.gyaloglo.hu).
Logging start : 05/09/14 , 02:28:12.
BeSweet.exe -core( -input C:\Temp\FOOD\AudioFile_80.ac3 -output C:\Temp\FOOD\AudioFile_80.wav -2ch -logfile C:\Temp\FOOD\AudioFile_80.log ) -azid( -s mono -c normal -L -3db )
[00:00:00:000] +------- BeSweet -----
[00:00:00:000] | Input : C:\Temp\FOOD\AudioFile_80.ac3
[00:00:00:000] | Output: C:\Temp\FOOD\AudioFile_80.wav
[00:00:00:000] | Floating-Point Process: No
[00:00:00:000] +-------- AZID -------
[00:00:00:000] | Input Channels Mode: 2/0, Bitrate: 192kbps
[00:00:00:000] | Output Stereo mode: Dolby surround 2 compatible
[00:00:00:000] | Total Gain: 0.000dB, Compression: Normal
[00:00:00:000] | LFE levels: To LR -3.0dB, To LFE 0.0dB
[00:00:00:000] | Center mix level: BSI
[00:00:00:000] | Surround mix level: BSI
[00:00:00:000] | Dialog normalization: No
[00:00:00:000] | Rear channels filtering: No
[00:00:00:000] | Source Sample-Rate: 48.0KHz
[00:00:00:000] +---------------------
[01:28:21:024] Conversion Completed !
[01:28:21:024] Actual Avg. Bitrate : 725kbps
[00:01:02:000]
[Profile]  [PM] 
Display posts:    
Reply to topic

Current time is: 14-Apr 23:02

All times are UTC + 2



You cannot post new topics in this forum
You cannot reply to topics in this forum
You cannot edit your posts in this forum
You cannot delete your posts in this forum
You cannot vote in polls in this forum
You cannot attach files in this forum
You cannot download files in this forum