Люди-аллигаторы / The Alligator People (Рой Дель Рут / Roy Del Ruth) [1959, США, ужасы, фантастика, DVD5 (Custom)] [16:9 NTSC R1] AVO (Сергей Кузнецов) + Sub Eng Spa + Original Eng + DUB Spa

Reply to topic
 
Author
Message

Faust ®

Gender: Unknown

Longevity: 9 years 6 months

Posts: 14961

Reputation: 0 [+] [-]

Faust · Post 26-May-2014 00:36

[Quote] 

Люди-аллигаторы / The Alligator People
16:9 NTSC R1
Слоган: «Terror in the Bayou!» Страна: США
Студия: Associated Producers (API)
Жанр: ужасы, фантастика
Год выпуска: 1959
Продолжительность: 01:14:18
Перевод: Авторский (одноголосый закадровый) - Сергей Кузнецов
Cубтитры: английские, испанские, английские[CC]
Оригинальная аудиодорожка: английский
Режиссер: Рой Дель Рут / Roy Del Ruth
В ролях: Беверли Гарлэнд, Брюс Беннетт, Лон Чейни мл., Джордж Макреди, Фрида Инескорт, Ричард Крэйн, Дуглас Кеннеди, Билл Брэдли, Хэл К. Доусон, Дадли Дикерсон ...
Описание: Молодожёны путешествовали на поезде. На одной из станций муж отлучился позвонить, и больше жена его не видела. Спустя много лет она всё же нашла его в поместье его родителей, но к тому времени её супруг превратился в жертву медицинского эксперимента.
Доп. информация: Диск собран из The Alligator People_1959_DVD5 R1 найденного в сети. (Который на постере)
Бонусы:
Theatrical Trailer
The Fly (1958)
The Fly (1986)
The Omen
Phantom of the Paradise
Меню: Статичное, неозвученное, на английском.Меню неотредактировано, переключение звуковых дорожек с пульта.--Спасибо за рус. одноголосую porka-durka19-- --The Alligator People_1959_DVD5 R1_Sample_.rar-
-

Диск аккурат умещается в DVD5



-
-Тип релиза: DVD5 (Custom)
Контейнер: DVD-Video
Видео: NTSC 16:9 (720x480) VBR Auto Letterboxed, ~ 7621.91 kbps avg
Аудио 1: English, AC3, 2/0 (L,R) ch, 192 kbps, Delay 28 mSec
Аудио 2: English, AC3, 2/0 (L,R) ch, 192 kbps, Delay 28 mSec
Аудио 3: Espanol, AC3, 2/0 (L,R) ch, 192 kbps, Delay 28 mSec
Аудио 4: Russian, AC3, 2/0 (L,R) ch, 192 kbps, Delay 28 mSec
Формат субтитров: prerendered (DVD/IDX+SUB), СС (Closed Captions)

MediaInfo

General
Complete name : The Alligator People_1959_DVD5 R1\VIDEO_TS\VTS_02_2.VOB
Format : MPEG-PS
File size : 1 024 MiB
Duration : 19mn 19s
Overall bit rate mode : Variable
Overall bit rate : 7 411 Kbps
Video
ID : 224 (0xE0)
Format : MPEG Video
Format version : Version 2
Format profile : Main@Main
Format settings, BVOP : Yes
Format settings, Matrix : Custom
Format settings, GOP : Variable
Duration : 19mn 18s
Bit rate mode : Variable
Bit rate : 6 496 Kbps
Maximum bit rate : 9 800 Kbps
Width : 720 pixels
Height : 480 pixels
Display aspect ratio : 16:9
Frame rate : 23.976 fps
Standard : Component
Color space : YUV
Chroma subsampling : 4:2:0
Bit depth : 8 bits
Scan type : Progressive
Scan order : 2:3 Pulldown
Compression mode : Lossy
Bits/(Pixel*Frame) : 0.784
Time code of first frame : 01:19:18;22
Time code source : Group of pictures header
Stream size : 897 MiB (88%)
Color primaries : BT.601 NTSC
Transfer characteristics : BT.601
Matrix coefficients : BT.601
Audio #1
ID : 189 (0xBD)-128 (0x80)
Format : AC-3
Format/Info : Audio Coding 3
Mode extension : CM (complete main)
Format settings, Endianness : Big
Muxing mode : DVD-Video
Duration : 19mn 18s
Bit rate mode : Constant
Bit rate : 192 Kbps
Channel(s) : 2 channels
Channel positions : Front: L R
Sampling rate : 48.0 KHz
Bit depth : 16 bits
Compression mode : Lossy
Delay relative to video : -611ms
Stream size : 26.5 MiB (3%)
Audio #2
ID : 189 (0xBD)-129 (0x81)
Format : AC-3
Format/Info : Audio Coding 3
Mode extension : CM (complete main)
Format settings, Endianness : Big
Muxing mode : DVD-Video
Duration : 19mn 18s
Bit rate mode : Constant
Bit rate : 192 Kbps
Channel(s) : 2 channels
Channel positions : Front: L R
Sampling rate : 48.0 KHz
Bit depth : 16 bits
Compression mode : Lossy
Delay relative to video : -611ms
Stream size : 26.5 MiB (3%)
Audio #3
ID : 189 (0xBD)-130 (0x82)
Format : AC-3
Format/Info : Audio Coding 3
Mode extension : CM (complete main)
Format settings, Endianness : Big
Muxing mode : DVD-Video
Duration : 19mn 19s
Bit rate mode : Constant
Bit rate : 192 Kbps
Channel(s) : 2 channels
Channel positions : Front: L R
Sampling rate : 48.0 KHz
Bit depth : 16 bits
Compression mode : Lossy
Delay relative to video : -707ms
Stream size : 26.5 MiB (3%)
Audio #4
ID : 189 (0xBD)-131 (0x83)
Format : AC-3
Format/Info : Audio Coding 3
Mode extension : CM (complete main)
Format settings, Endianness : Big
Muxing mode : DVD-Video
Duration : 19mn 19s
Bit rate mode : Constant
Bit rate : 192 Kbps
Channel(s) : 2 channels
Channel positions : Front: L R
Sampling rate : 48.0 KHz
Bit depth : 16 bits
Compression mode : Lossy
Delay relative to video : -707ms
Stream size : 26.5 MiB (3%)
Text #1
ID : 189 (0xBD)-34 (0x22)
Format : RLE
Format/Info : Run-length encoding
Muxing mode : DVD-Video
Duration : 18mn 51s
Delay relative to video : 12s 229ms
Text #2
ID : 189 (0xBD)-35 (0x23)
Format : RLE
Format/Info : Run-length encoding
Muxing mode : DVD-Video
Duration : 18mn 51s
Delay relative to video : 12s 229ms
Text #3
ID : 189 (0xBD)-36 (0x24)
Format : RLE
Format/Info : Run-length encoding
Muxing mode : DVD-Video
Delay relative to video : 12s 229ms
Text #4
ID : 189 (0xBD)-37 (0x25)
Format : RLE
Format/Info : Run-length encoding
Muxing mode : DVD-Video
Delay relative to video : 12s 229ms
Text #5
ID : 224 (0xE0)-CC3
Format : EIA-608
Muxing mode, more info : Muxed in Video #1
Bit rate mode : Constant
Stream size : 0.00 Byte (0%)
Text #6
ID : 189 (0xBD)-32 (0x20)
Format : RLE
Format/Info : Run-length encoding
Muxing mode : DVD-Video
Text #7
ID : 189 (0xBD)-33 (0x21)
Format : RLE
Format/Info : Run-length encoding
Muxing mode : DVD-Video
Menu

DVD Info

Title: The Alligator People_1959_DVD5 R1
Size: 4.38 Gb ( 4 589 566,00 KBytes ) - DVD-5
Enabled regions: 1, 2, 3, 4, 5, 6, 7, 8
VTS_01 :
Play Length: 00:01:59+00:02:03+00:02:59+00:02:18+00:00:00
Video: NTSC 4:3 (720x480) VBR
Audio:
English (Dolby AC3, 2 ch)
VTS_02 :
Play Length: 01:14:18
Video: NTSC 16:9 (720x480) VBR, Auto Letterboxed
Audio:
English, AC3, 2/0 (L,R) ch, 192 kbps, Delay 28 mSec
English, AC3, 2/0 (L,R) ch, 192 kbps, Delay 28 mSec
Espanol, AC3, 2/0 (L,R) ch, 192 kbps, Delay 28 mSec
Russian, AC3, 2/0 (L,R) ch, 192 kbps, Delay 28 mSec
Subtitles:
English
Espanol
Espanol
VTS_03 :
Play Length: 00:00:08
Video: NTSC 4:3 (720x480) VBR
VTS_04 :
Play Length: 00:00:11+00:00:00
Video: NTSC 16:9 (720x480) VBR, Auto Pan&Scan
Audio:
English (Dolby AC3, 6 ch)
VTS_05 :
Play Length: 00:01:37+00:00:00
Video: NTSC 16:9 (720x480) VBR, Auto Letterboxed
Audio:
English (Dolby AC3, 2 ch)
* Menus Information *
VIDEO_TS Menu
Video:
NTSC 16:9 (720x480) VBR
Auto Pan&Scan
Audio:
Not specified (Dolby AC3, 2 ch)
English Language Unit :
Title Menu
VTS_01 Menu
Video:
NTSC 4:3 (720x480) VBR
Audio:
Not specified (Dolby AC3, 2 ch)
English Language Unit :
Root Menu
VTS_02 Menu
Video:
NTSC 16:9 (720x480) VBR
Auto Pan&Scan
Audio:
Not specified (Dolby AC3, 2 ch)
English Language Unit :
Root Menu
Subpicture Menu
Audio Menu
Angle menu
Chapter (PTT) Menu
VTS_03 Menu
Video:
NTSC 4:3 (720x480) VBR
Audio:
Not specified (Dolby AC3, 2 ch)
English Language Unit :
Root Menu
VTS_04 Menu
Video:
NTSC 4:3 (720x480) VBR
Audio:
Not specified (Dolby AC3, 2 ch)
English Language Unit :
Root Menu
VTS_05 Menu
Video:
NTSC 4:3 (720x480) VBR
Audio:
Not specified (Dolby AC3, 2 ch)
English Language Unit :
Root Menu

П. О.

PgcDemux 1.2.0.5 - разделение компонентов диска на файлы;
BeSweetv1.5b31+BeLight 0.21 - AC3, mp3 -> Wav
Sound Forge pro 10 - Wav -> AC3
MuxMan DVD authoring Professional 1.4.4 - мультиплексирование и авторинг DVD;
DVDRemake Pro 3.6.4 - реавторинг DVD;
DVD Shrink 3.2 - Сэмпл
VLC - Скриншоты-
-
-

-
-
-BeSweet v1.5b31 by DSPguru.
--------------------------
Using azid.dll v1.9 (b922) by Midas (midas@egon.gyaloglo.hu).
Logging start : 05/07/14 , 04:07:44.
BeSweet.exe -core( -input C:\Temp\ALIGATOR\AudioFile_80.ac3 -output C:\Temp\ALIGATOR\AudioFile_80.wav -2ch -logfile C:\Temp\ALIGATOR\AudioFile_80.log ) -azid( -s mono -c normal -L -3db )
[00:00:00:000] +------- BeSweet -----
[00:00:00:000] | Input : C:\Temp\ALIGATOR\AudioFile_80.ac3
[00:00:00:000] | Output: C:\Temp\ALIGATOR\AudioFile_80.wav
[00:00:00:000] | Floating-Point Process: No
[00:00:00:000] +-------- AZID -------
[00:00:00:000] | Input Channels Mode: 2/0, Bitrate: 192kbps
[00:00:00:000] | Output Stereo mode: Dolby surround 2 compatible
[00:00:00:000] | Total Gain: 0.000dB, Compression: Normal
[00:00:00:000] | LFE levels: To LR -3.0dB, To LFE 0.0dB
[00:00:00:000] | Center mix level: BSI
[00:00:00:000] | Surround mix level: BSI
[00:00:00:000] | Dialog normalization: No
[00:00:00:000] | Rear channels filtering: No
[00:00:00:000] | Source Sample-Rate: 48.0KHz
[00:00:00:000] +---------------------
[01:14:22:016] Conversion Completed !
[01:14:22:016] Actual Avg. Bitrate : 573kbps
[00:01:02:000]
[Profile]  [PM] 
Display posts:    
Reply to topic

Current time is: 14-Apr 22:18

All times are UTC + 2



You cannot post new topics in this forum
You cannot reply to topics in this forum
You cannot edit your posts in this forum
You cannot delete your posts in this forum
You cannot vote in polls in this forum
You cannot attach files in this forum
You cannot download files in this forum