Секс, вечеринки и ложь / Mentiras y gordas / Sex, Party and Lies (Альфонсо Альбасете / Alfonso Albacete, Давид Менкес / David Menkes) [2009, Испания, драма, комедия, DVD9 (Custom)] [16:9 PAL R2] DVO (студия NLS) + DVO + VO + Sub Rus Eng + Orig Spa

Reply to topic
 
Author
Message

Faust ®

Gender: Unknown

Longevity: 9 years 6 months

Posts: 14946

Reputation: 0 [+] [-]

Faust · Post 26-May-2014 00:37

[Quote] 

Секс, вечеринки и ложь / Mentiras y gordas / Sex, Party and Lies
16:9 PAL R2
Страна: Испания
Студия: Agrupación de Cine 001 AIE, Castafiore Films, Tornasol Films
Жанр: драма, комедия
Год выпуска: 2009
Продолжительность: 01:43:43
Перевод: Профессиональный (двухголосый закадровый) - студия NLS
Перевод 2: Любительский (двухголосый закадровый) - TheAngelOfDeath & SweetySacrifice
Перевод 3: Одноголосый закадровый - Василий Кошкин
Cубтитры: русские(M. Johnson), английские.
Оригинальная аудиодорожка: испанский
Режиссер: Альфонсо Альбасете / Alfonso Albacete, Давид Менкес / David Menkes
В ролях: Марио Касас, Ана де Армас, Йон Гонсалес, Уго Сильва, Ана Мария Польвороса, Алехо Саурас, Мариета Ороско, Мириам Джованелли, Дуна Жове, Макси Иглесиас ...
Описание: В фильме пересекаются линии нескольких людей, у которых разная жизнь, разные взгляды на вещи. Одна стала лесбиянкой, вторая «спит» с бывшим своей подруги, и другие изменения в своей жизни переживают главные герои.
Доп. информация: Диск собран из Диск собран из Mentiras y gordas_2009_DVD9 R2 найденного в сети. (Который на постере)
Бонусы: Фильмографии, трейлер, анонсы новых фильмов.
Меню: Анимированное, озвученное, на испанском.Меню неотредактировано, переключение звуковых дорожек с пульта.
Фильм автоматический стартует с рус. звук. дорожкой.
-- --Mentiras y gordas_2009_DVD9 R2_Sample_.rar--Спасибо за рус. проф. двухголосый 25kСпасибо за рус. двухголосый TheAngelOfDeathСпасибо за рус. одноголосый magik2008Спасибо за рус. субтитры igumnosi-
-

Точка перехода на второй слой


-
-Тип релиза: DVD9 (Custom)
Контейнер: DVD-Video
Видео: PAL 16:9 (720x576) VBR Auto Letterboxed, ~ 9670.07 kbps avg
Аудио 1: Russian, AC3, 2/0 (L,R) ch, 192 kbps, Delay 0 mSec - DVO - студия NLS
Аудио 2: Russian, AC3, 2/0 (L,R) ch, 192 kbps, Delay 0 mSec - DVO - TheAngelOfDeath & SweetySacrifice
Аудио 3: Russian, AC3, 2/0 (L,R) ch, 192 kbps, Delay 0 mSec - VO - Василий Кошкин
Аудио 4: Espanol, AC3, 3/2 (L,C,R,SL,SR)+LFE ch, 448 kbps, Delay 0 mSec
Формат субтитров: prerendered (DVD/IDX+SUB)

MediaInfo

General
Complete name : Mentiras y gordas_2009_DVD9 R2\VIDEO_TS\VTS_01_2.VOB
Format : MPEG-PS
File size : 1 024 MiB
Duration : 14mn 55s
Overall bit rate mode : Variable
Overall bit rate : 9 591 Kbps
Video
ID : 224 (0xE0)
Format : MPEG Video
Format version : Version 2
Format profile : Main@Main
Format settings, BVOP : Yes
Format settings, Matrix : Custom
Format settings, GOP : M=3, N=12
Duration : 14mn 55s
Bit rate mode : Variable
Bit rate : 8 400 Kbps
Width : 720 pixels
Height : 576 pixels
Display aspect ratio : 16:9
Frame rate : 25.000 fps
Standard : PAL
Color space : YUV
Chroma subsampling : 4:2:0
Bit depth : 8 bits
Scan type : Interlaced
Scan order : Top Field First
Compression mode : Lossy
Bits/(Pixel*Frame) : 0.810
Time code of first frame : 10:14:54:17
Time code source : Group of pictures header
Stream size : 894 MiB (87%)
Audio #1
ID : 189 (0xBD)-128 (0x80)
Format : AC-3
Format/Info : Audio Coding 3
Mode extension : CM (complete main)
Format settings, Endianness : Big
Muxing mode : DVD-Video
Duration : 14mn 55s
Bit rate mode : Constant
Bit rate : 192 Kbps
Channel(s) : 2 channels
Channel positions : Front: L R
Sampling rate : 48.0 KHz
Bit depth : 16 bits
Compression mode : Lossy
Delay relative to video : -304ms
Stream size : 20.5 MiB (2%)
Audio #2
ID : 189 (0xBD)-129 (0x81)
Format : AC-3
Format/Info : Audio Coding 3
Mode extension : CM (complete main)
Format settings, Endianness : Big
Muxing mode : DVD-Video
Duration : 14mn 55s
Bit rate mode : Constant
Bit rate : 192 Kbps
Channel(s) : 2 channels
Channel positions : Front: L R
Sampling rate : 48.0 KHz
Bit depth : 16 bits
Compression mode : Lossy
Delay relative to video : -304ms
Stream size : 20.5 MiB (2%)
Audio #3
ID : 189 (0xBD)-130 (0x82)
Format : AC-3
Format/Info : Audio Coding 3
Mode extension : CM (complete main)
Format settings, Endianness : Big
Muxing mode : DVD-Video
Duration : 14mn 55s
Bit rate mode : Constant
Bit rate : 192 Kbps
Channel(s) : 2 channels
Channel positions : Front: L R
Sampling rate : 48.0 KHz
Bit depth : 16 bits
Compression mode : Lossy
Delay relative to video : -304ms
Stream size : 20.5 MiB (2%)
Audio #4
ID : 189 (0xBD)-131 (0x83)
Format : AC-3
Format/Info : Audio Coding 3
Mode extension : CM (complete main)
Format settings, Endianness : Big
Muxing mode : DVD-Video
Duration : 14mn 55s
Bit rate mode : Constant
Bit rate : 448 Kbps
Channel(s) : 6 channels
Channel positions : Front: L C R, Side: L R, LFE
Sampling rate : 48.0 KHz
Bit depth : 16 bits
Compression mode : Lossy
Delay relative to video : -368ms
Stream size : 47.8 MiB (5%)
Text #1
ID : 189 (0xBD)-32 (0x20)
Format : RLE
Format/Info : Run-length encoding
Muxing mode : DVD-Video
Text #2
ID : 189 (0xBD)-33 (0x21)
Format : RLE
Format/Info : Run-length encoding
Muxing mode : DVD-Video
Menu

DVD Info

Title: Mentiras y gordas_2009_DVD9 R2
Size: 7.95 Gb ( 8 332 734,00 KBytes ) - DVD-9
Enabled regions: 1, 2, 3, 4, 5, 6, 7, 8
VTS_01 :
Play Length: 01:43:43+00:00:06
Video: PAL 16:9 (720x576) VBR, Auto Letterboxed
Audio:
Russian, AC3, 2/0 (L,R) ch, 192 kbps, Delay 0 mSec
Russian, AC3, 2/0 (L,R) ch, 192 kbps, Delay 0 mSec
Russian, AC3, 2/0 (L,R) ch, 192 kbps, Delay 0 mSec
Espanol, AC3, 3/2 (L,C,R,SL,SR)+LFE ch, 448 kbps, Delay 0 mSec
Subtitles:
English
Russian
VTS_02 :
Play Length: 00:00:15+00:00:05+00:00:16
Video: PAL 16:9 (720x576) VBR, Auto Letterboxed
Audio:
Espanol (Dolby AC3, 2 ch)
VTS_03 :
Play Length: 00:00:32+00:01:27
Video: PAL 4:3 (720x576) VBR
Audio:
Espanol (Dolby AC3, 2 ch)
VTS_04 :
Play Length: 00:01:01
Video: PAL 4:3 (720x576) VBR
Audio:
Espanol (Dolby AC3, 2 ch)
VTS_05 :
Play Length: 00:02:13+00:01:34
Video: PAL 16:9 (720x576) VBR, Auto Letterboxed
Audio:
Espanol (Dolby AC3, 2 ch)
VTS_06 :
Play Length: 00:02:00
Video: PAL 16:9 (720x576) VBR, Auto Letterboxed
Audio:
English (Dolby AC3, 2 ch)
Subtitles:
Espanol
* Menus Information *
VIDEO_TS Menu
Video:
PAL 16:9 (720x576) VBR
Auto Letterboxed
Audio:
Not specified (Dolby AC3, 2 ch)
Espanol Language Unit :
Title Menu
VTS_01 Menu
Video:
PAL 16:9 (720x576) VBR
Auto Letterboxed
Audio:
Not specified (Dolby AC3, 2 ch)
Espanol Language Unit :
Root Menu
Subpicture Menu
Chapter (PTT) Menu
VTS_02 Menu
Video:
PAL 16:9 (720x576) VBR
Auto Letterboxed
Espanol Language Unit :
Root Menu
VTS_03 Menu
Video:
PAL 16:9 (720x576) VBR
Auto Letterboxed
Espanol Language Unit :
Root Menu
VTS_04 Menu
Video:
PAL 16:9 (720x576) VBR
Auto Letterboxed
Espanol Language Unit :
Root Menu
VTS_05 Menu
Video:
PAL 16:9 (720x576) VBR
Auto Letterboxed
Espanol Language Unit :
Root Menu
VTS_06 Menu
Video:
PAL 16:9 (720x576) VBR
Auto Letterboxed
Espanol Language Unit :
Root Menu

П. О.

PgcDemux 1.2.0.5 - разделение компонентов диска на файлы;
BeSweetv1.5b31+BeLight 0.21 - AC3, mp3 -> Wav
Sound Forge pro 10 - Wav -> AC3
MaestroSBT-Unicode-2.6.2.1 - Создание субтитров
DVDSubEdit -- Version 1.52 - Правка (цветовых схем) субтитров
MuxMan DVD authoring Professional 1.4.4 - мультиплексирование и авторинг DVD;
DVDRemake Pro 3.6.4 - реавторинг DVD;
DVD Shrink 3.2 - Сэмпл
VLC - Скриншоты-
-
-



-
-
-BeSweet v1.5b31 by DSPguru.
--------------------------
Using azid.dll v1.9 (b922) by Midas (midas@egon.gyaloglo.hu).
Logging start : 04/07/14 , 17:38:59.
BeSweet.exe -core( -input C:\Temp\GORDAS\AudioFile_80.ac3 -output C:\Temp\GORDAS\AudioFile_80.wav -6chwav -logfile C:\Temp\GORDAS\AudioFile_80.log ) -azid( -c normal )
[00:00:00:000] +------- BeSweet -----
[00:00:00:000] | Input : C:\Temp\GORDAS\AudioFile_80.ac3
[00:00:00:000] | Output: C:\Temp\GORDAS\AudioFile_80.wav
[00:00:00:000] | Floating-Point Process: No
[00:00:00:000] +-------- AZID -------
[00:00:00:000] | Input Channels Mode: 3/2, Bitrate: 448kbps
[00:00:00:000] | Total Gain: 0.000dB, Compression: Normal
[00:00:00:000] | LFE levels: To LR -INF, To LFE 0.0dB
[00:00:00:000] | Center mix level: BSI
[00:00:00:000] | Surround mix level: BSI
[00:00:00:000] | Dialog normalization: No
[00:00:00:000] | Rear channels filtering: No
[00:00:00:000] | Source Sample-Rate: 48.0KHz
[00:00:00:000] +---------------------
[01:43:43:008] Conversion Completed !
[01:43:43:008] Actual Avg. Bitrate : 690kbps
[00:02:55:000]
[Profile]  [PM] 
Display posts:    
Reply to topic

Current time is: 12-Apr 04:46

All times are UTC + 2



You cannot post new topics in this forum
You cannot reply to topics in this forum
You cannot edit your posts in this forum
You cannot delete your posts in this forum
You cannot vote in polls in this forum
You cannot attach files in this forum
You cannot download files in this forum